<?xml version="1.0" encoding="UTF-8" standalone="no"?>
<!DOCTYPE svg PUBLIC "-//W3C//DTD SVG 1.1//EN" "http://www.w3.org/Graphics/SVG/1.1/DTD/svg11.dtd">
<svg xmlns="http://www.w3.org/2000/svg">
<metadata>Generated by IcoMoon</metadata>
<defs>
<font id="Pe-icon-7-stroke" horiz-adv-x="512">
<font-face units-per-em="512" ascent="480" descent="-32"/>
<missing-glyph horiz-adv-x="512"/>
<glyph unicode=" " d="" horiz-adv-x="256"/>
<glyph unicode="" d="M447.892 343.42h-55.412v46.814c0 21.25-17.219 38.486-38.485 38.486h-264.23c-21.241 0-38.485-17.236-38.485-38.486v-358.126c0-7.089 5.739-12.828 12.828-12.828h383.783c7.081 0 12.828 5.739 12.828 12.828v298.483c0.001 7.089-5.746 12.829-12.827 12.829zM89.765 411.66h264.23c11.811 0 21.425-9.613 21.425-21.426v-46.814h-307.080v46.814c0 11.813 9.612 21.426 21.425 21.426zM443.66 36.34h-375.32v290.020h375.32v-290.020zM324.24 181.341c0-23.55 19.101-42.634 42.659-42.634s42.641 19.084 42.641 42.634c0 23.557-19.084 42.65-42.641 42.65s-42.659-19.092-42.659-42.65zM392.48 181.341c0-14.103-11.479-25.574-25.581-25.574-14.111 0-25.599 11.471-25.599 25.574 0 14.111 11.487 25.59 25.599 25.59 14.102 0 25.581-11.478 25.581-25.59z"/>
<glyph unicode="" d="M179.23 266.65v-85.3h69.948l58.002-57.995v201.297l-58.002-58.002h-69.948zM261.24 254.588l28.88 28.88v-118.928l-33.878 33.87h-59.952v51.18h59.953l4.997 4.998zM256 437.25c-117.77 0-213.25-95.48-213.25-213.25 0-117.771 95.48-213.25 213.25-213.25 117.771 0 213.25 95.479 213.25 213.25 0 117.77-95.479 213.25-213.25 213.25zM256 27.81c-108.183 0-196.19 88.015-196.19 196.19 0 108.174 88.007 196.19 196.19 196.19s196.19-88.016 196.19-196.19c0-108.175-88.007-196.19-196.19-196.19z"/>
<glyph unicode="" d="M179.23 266.65v-85.3h69.948l58.002-57.995v201.297l-58.002-58.002h-69.948zM261.24 254.588l28.88 28.88v-118.928l-33.879 33.87h-59.951v51.18h59.952l4.998 4.998zM427.050 351.358l-13.753-10.238c24.415-32.712 38.893-73.255 38.893-117.12s-14.478-84.409-38.893-117.113l13.753-10.238c26.507 35.536 42.2 79.611 42.2 127.35s-15.694 91.823-42.2 127.359zM385.791 127.363c20.167 27.022 32.271 60.401 32.271 96.637s-12.103 69.614-32.271 96.637l-13.661-10.171c18.043-24.174 28.871-54.046 28.871-86.466s-10.82-62.284-28.871-86.467l13.661-10.17zM344.807 157.875c13.803 18.493 22.083 41.326 22.083 66.125s-8.28 47.639-22.083 66.124l-13.661-10.171c11.678-15.644 18.684-34.97 18.684-55.953s-7.006-40.309-18.684-55.953l13.661-10.172zM255.991 27.81c-108.174 0-196.181 88.007-196.181 196.19s88.007 196.19 196.181 196.19c53.912 0 102.752-21.917 138.254-57.228l12.12 12.12c-38.567 38.386-91.671 62.168-150.374 62.168-117.761 0-213.241-95.471-213.241-213.25 0-117.771 95.48-213.25 213.241-213.25 58.703 0 111.807 23.782 150.375 62.167l-12.12 12.129c-35.503-35.32-84.342-57.236-138.255-57.236z"/>
<glyph unicode="" d="M396.745 339.155c-63.592 0-115.155-51.554-115.155-115.155 0-41.55 22.075-77.844 55.062-98.095h-161.304c32.987 20.251 55.062 56.545 55.062 98.095 0 63.601-51.563 115.155-115.155 115.155s-115.155-51.554-115.155-115.155c0-63.6 51.563-115.155 115.155-115.155h281.49c63.592 0 115.155 51.555 115.155 115.155s-51.563 115.155-115.155 115.155zM17.16 224c0 54.087 44.008 98.095 98.095 98.095s98.095-44.008 98.095-98.095-44.008-98.095-98.095-98.095-98.095 44.008-98.095 98.095zM396.745 125.905c-54.087 0-98.095 44.008-98.095 98.095s44.008 98.095 98.095 98.095 98.095-44.008 98.095-98.095-44.008-98.095-98.095-98.095z"/>
<glyph unicode="" d="M450.974 334.89l-109.674-65.957v74.487c0 14.127-11.463 25.59-25.59 25.59h-272.96c-14.144 0-25.59-11.463-25.59-25.59v-238.84c0-14.128 11.446-25.59 25.59-25.59h272.96c14.127 0 25.59 11.462 25.59 25.59v75.903l112.089-67.373h41.451v221.78h-43.866zM324.24 104.58c0-4.707-3.833-8.53-8.53-8.53h-272.96c-4.715 0-8.53 3.823-8.53 8.53v238.84c0 4.706 3.815 8.53 8.53 8.53h272.96c4.697 0 8.53-3.824 8.53-8.53v-238.84zM477.78 130.17h-19.659l-116.821 70.222v48.631l114.405 68.806h22.075v-187.659z"/>
<glyph unicode="" d="M256 428.722c-113.073 0-204.72-91.647-204.72-204.72s91.647-204.723 204.72-204.723 204.72 91.651 204.72 204.723c0 113.073-91.647 204.72-204.72 204.72zM256 411.662c103.477 0 187.66-84.183 187.66-187.66 0-45.524-16.31-87.307-43.383-119.836-18.71 7.813-62.875 23.141-90.215 31.213-2.332 0.733-2.699 0.85-2.699 10.554 0 8.014 3.299 16.085 6.514 22.916 3.482 7.422 7.613 19.901 9.096 31.096 4.148 4.815 9.796 14.312 13.428 32.412 3.182 15.953 1.699 21.758-0.416 27.206-0.217 0.575-0.45 1.141-0.617 1.708-0.8 3.74 0.299 23.174 3.032 38.252 1.883 10.346-0.484 32.346-14.728 50.546-8.997 11.504-26.207 25.623-57.644 27.589l-17.243-0.016c-30.905-1.95-48.131-16.069-57.128-27.573-14.244-18.2-16.61-40.2-14.727-50.539 2.748-15.085 3.832-34.519 3.049-38.185-0.166-0.641-0.4-1.208-0.633-1.783-2.099-5.448-3.599-11.254-0.4-27.206 3.615-18.101 9.263-27.597 13.428-32.412 1.466-11.196 5.598-23.674 9.096-31.096 2.549-5.431 3.749-12.82 3.749-23.266 0-9.705-0.367-9.821-2.55-10.512-28.272-8.347-73.271-24.607-90.048-31.954-27.604 32.679-44.281 74.862-44.281 120.886 0 103.476 84.183 187.66 187.66 187.66zM124.984 89.817c19.21 7.842 57.511 21.504 82.668 28.935 14.628 4.615 14.628 16.935 14.628 26.831 0 8.205-0.566 20.301-5.365 30.53-3.299 7.006-7.065 19.018-7.897 28.422-0.183 2.199-1.216 4.232-2.882 5.681-2.416 2.116-7.331 9.863-10.463 25.49-2.482 12.37-1.432 15.078-0.416 17.693 0.433 1.117 0.85 2.216 1.183 3.457 2.049 7.488-0.234 32.087-2.716 45.732-1.082 5.931 0.283 22.783 11.379 36.978 9.946 12.72 25.007 19.809 44.216 21.033l16.177 0.017c19.726-1.241 34.786-8.33 44.749-21.050 11.096-14.195 12.445-31.047 11.362-36.985-2.466-13.637-4.765-38.236-2.716-45.716 0.351-1.25 0.75-2.349 1.183-3.466 1.017-2.615 2.066-5.323-0.4-17.693-3.131-15.627-8.063-23.374-10.479-25.49-1.649-1.449-2.682-3.482-2.882-5.681-0.816-9.404-4.581-21.416-7.88-28.422-3.782-8.039-8.13-18.743-8.13-30.18 0-9.897 0-22.216 14.777-26.873 24.074-7.114 62.559-20.334 82.884-28.326-33.936-33.604-80.567-54.396-131.964-54.396-50.93 0-97.162 20.425-131.016 53.479z"/>
<glyph unicode="" d="M330.638 180.083l12.062 12.061-86.7 86.7-86.7-86.7 12.063-12.061 66.107 66.107v-270.036h17.060v270.036zM213.35 61.454v17.060h-110.89v290.020h307.080v-290.020h-110.89v-17.060h127.95v324.14h-341.2v-324.14z"/>
<glyph unicode="" d="M375.42 232.53h-213.25v102.36c0 51.738 42.1 93.83 93.847 93.83 51.729 0 93.813-42.092 93.813-93.83v-34.12h17.060v34.12c0 61.234-49.647 110.89-110.873 110.89-61.251 0-110.907-49.656-110.907-110.89v-102.36h-59.71v-230.31h341.2v230.31h-51.18zM409.54 19.28h-307.080v196.19h307.080v-196.19z"/>
<glyph unicode="" d="M264.53 437.042v25.798h-17.060v-25.798c-137.163-4.499-247.37-116.763-247.37-254.217 0-9.047 0.5-18.31 1.5-27.556l16.993 0.608c1.033 28.63 24.257 51.063 52.896 51.063 29.205 0 52.979-23.774 52.979-52.988h17.060c0 29.214 23.774 52.988 52.996 52.988 28.889 0 52.413-23.241 52.946-52.005v-132.082c0-20.783 16.894-37.693 37.686-37.693s37.702 16.91 37.702 37.693h-17.060c0-11.378-9.263-20.633-20.642-20.633s-20.626 9.255-20.626 20.633v131.099h0.050c0 29.214 23.757 52.988 52.979 52.988s52.996-23.774 52.996-52.988h17.060c0 29.214 23.774 52.988 52.979 52.988 28.39 0 51.613-22.225 52.863-50.597l17.011-0.517c0.949 9.047 1.432 18.126 1.432 26.998 0 137.455-110.207 249.719-247.37 254.218zM440.594 224c-26.506 0-49.614-14.803-61.509-36.569-11.895 21.766-35.020 36.569-61.526 36.569s-49.614-14.803-61.509-36.569c-11.895 21.766-35.020 36.569-61.526 36.569s-49.631-14.803-61.526-36.569c-11.895 21.766-35.003 36.569-61.509 36.569-21.658 0-40.968-9.696-53.796-25.082 8.364 123.418 112.040 221.281 238.307 221.281 126.235 0 229.91-97.845 238.291-221.231-12.846 15.344-32.138 25.032-53.697 25.032z"/>
<glyph unicode="" d="M418.070 386.070h-85.3v17.060c0 18.842-15.277 34.12-34.12 34.12h-85.3c-18.843 0-34.12-15.278-34.12-34.12v-17.060h-85.3v-17.060h17.577l17.076-324.14c0-18.843 15.277-34.12 34.12-34.12h187.66c18.843 0 34.12 15.277 34.12 34.12l16.777 324.14h16.81v17.060zM196.29 403.13c0 9.413 7.664 17.060 17.060 17.060h85.3c9.413 0 17.060-7.647 17.060-17.060v-17.060h-119.42v17.060zM367.456 45.753l-0.033-0.433v-0.45c0-9.397-7.647-17.060-17.060-17.060h-187.66c-9.396 0-17.060 7.663-17.060 17.060v0.45l-0.016 0.45-17.044 323.24h255.601l-16.728-323.257zM247.47 334.89h17.060v-272.96h-17.060v272.96zM213.733 62.479l-17.459 272.427-17.027-1.082 17.46-272.427zM332.887 334.357l-17.027 1.066-17.21-272.96 17.027-1.066z"/>
<glyph unicode="" d="M472.52 67.84l-90.473 90.473 12.070 12.071-12.062 12.061-36.177-36.177-60.334 60.318 72.488 72.505c9.655-3.44 19.751-5.181 30.105-5.181 23.891 0 46.357 9.305 63.258 26.19 26.074 26.090 33.471 64.866 18.843 98.778l-4.973 11.545-38.876-38.876-31.304-0.425 0.416 29.855 39.635 39.626-11.521 4.989c-11.304 4.89-23.307 7.372-35.669 7.372-23.899 0-46.357-9.305-63.234-26.198-24.74-24.723-32.688-60.834-20.984-93.438l-72.463-72.463-102.552 102.535 12.071 12.062-66.325 66.332-36.219-36.169 66.357-66.349 12.054 12.061 102.551-102.535-72.472-72.472c-9.679 3.466-19.817 5.215-30.205 5.215-23.891 0-46.356-9.305-63.241-26.198-26.132-26.115-33.513-64.941-18.81-98.895l4.989-11.512 39.627 39.626 29.846 0.4-0.425-31.304-38.876-38.876 11.545-4.974c11.271-4.856 23.224-7.322 35.536-7.322 23.899 0 46.349 9.297 63.234 26.182 24.699 24.707 32.654 60.776 21.025 93.33l72.505 72.514 60.335-60.31-36.203-36.203 12.062-12.061 12.061 12.061 90.465-90.465c8.055-8.063 18.776-12.503 30.163-12.503s22.1 4.44 30.164 12.503c16.629 16.619 16.62 43.676-0.007 60.302zM62.381 405.625l12.070 12.045 42.208-42.208-12.061-12.062-42.217 42.225zM183.167 120.711c11.829-27.464 5.831-58.86-15.277-79.977-13.662-13.661-31.829-21.183-51.171-21.183-5.556 0-11.021 0.617-16.343 1.849l25.099 25.099 0.757 55.761-54.304-0.733-25.908-25.906c-5.698 24.157 1.299 49.647 19.326 67.665 13.67 13.669 31.846 21.2 51.18 21.2 10.021 0 19.734-2.008 28.889-5.973l5.324-2.3 173.107 173.108-2.299 5.323c-11.904 27.497-5.923 58.918 15.227 80.060 13.662 13.67 31.838 21.2 51.172 21.2 5.606 0 11.112-0.633 16.485-1.874l-25.89-25.89-0.75-54.312 55.761 0.758 25.124 25.115c5.631-24.115-1.375-49.555-19.343-67.54-13.678-13.662-31.854-21.192-51.197-21.192-9.988 0-19.675 1.999-28.813 5.931l-5.315 2.291-173.132-173.165 2.291-5.315zM460.467 19.601c-4.84-4.84-11.271-7.506-18.102-7.506-6.839 0-13.261 2.666-18.101 7.506l-90.465 90.465 36.186 36.186 90.473-90.473c9.98-9.98 9.98-26.207 0.009-36.178z"/>
<glyph unicode="" d="M234.975 209.206c0.333-0.416 0.799-0.767 1.166-1.166 4.698-5.831 11.795-9.63 19.859-9.63 14.127 0 25.59 11.446 25.59 25.59 0 7.513-3.299 14.194-8.43 18.875-0.666 0.75-1.283 1.517-2.266 2.266l-103.41 78.686c-3.015 2.316-7.347 2.432-10.495 0-3.765-2.899-4.466-8.297-1.566-12.062l79.552-102.559zM256 437.233c-2.799 0-5.531-0.316-8.297-0.416v-8.846h-0.233v-93.064h17.060v84.833c104.225-4.515 187.66-90.448 187.66-195.74 0-108.175-87.999-196.174-196.19-196.174s-196.19 88-196.19 196.174c0 54.096 22.008 103.143 57.544 138.662l-12.129 12.129c-38.601-38.584-62.475-91.897-62.475-150.791 0-117.771 95.463-213.234 213.25-213.234s213.25 95.463 213.25 213.234c0 117.771-95.463 213.233-213.25 213.233z"/>
<glyph unicode="" d="M396.504 454.31h-112.406l-258.408-257.732 202.454-202.888 258.166 257.483v113.539l-89.806 89.598zM469.25 258.254l-241.072-240.439-178.356 178.738 241.331 240.697h98.295l79.802-79.618v-99.378zM349.88 352.009c0-18.776 15.302-34.045 34.12-34.045s34.12 15.269 34.12 34.045c0 18.784-15.303 34.061-34.12 34.061s-34.12-15.277-34.12-34.061zM401.060 352.009c0-9.363-7.656-16.985-17.060-16.985s-17.060 7.622-17.060 16.985c0 9.371 7.655 17.001 17.060 17.001s17.060-7.63 17.060-17.001z"/>
<glyph unicode="" d="M256.9 294.91c-37.686 0-68.249-30.547-68.249-68.249 0-37.685 30.563-68.248 68.249-68.248 37.693 0 68.231 30.563 68.231 68.248 0 37.702-30.538 68.249-68.231 68.249zM256.9 175.474c-28.222 0-51.189 22.965-51.189 51.188s22.966 51.189 51.189 51.189c28.214 0 51.171-22.966 51.171-51.189s-22.957-51.188-51.171-51.188zM256.891 363.141c-75.379 0-136.48-61.093-136.48-136.48 0-75.379 61.101-136.48 136.48-136.48s136.48 61.101 136.48 136.48c0 75.388-61.101 136.48-136.48 136.48zM256.891 107.241c-65.849 0-119.42 53.571-119.42 119.42s53.571 119.42 119.42 119.42 119.42-53.57 119.42-119.42c0-65.849-53.571-119.42-119.42-119.42zM460.72 226.661c0 113.073-91.656 204.72-204.72 204.72s-204.72-91.647-204.72-204.72c0-62.309 27.873-118.078 71.788-155.622l-34.919-43.774 13.344-10.646 34.995 43.875c33.636-24.233 74.887-38.552 119.511-38.552 44.424 0 85.508 14.195 119.062 38.235l34.795-43.558 13.328 10.646-34.669 43.407c44.158 37.553 72.205 93.481 72.205 155.989zM68.34 226.661c0 103.477 84.184 187.66 187.66 187.66s187.66-84.183 187.66-187.66c0-103.476-84.183-187.66-187.66-187.66-103.476 0-187.66 84.185-187.66 187.66z"/>
<glyph unicode="" d="M256 351.834c-70.673 0-127.95-57.303-127.95-127.967 0-70.647 57.277-127.933 127.95-127.933 70.664 0 127.95 57.286 127.95 127.933 0 70.664-57.286 127.967-127.95 127.967zM256 112.994c-61.143 0-110.89 49.738-110.89 110.873 0 61.152 49.747 110.907 110.89 110.907s110.89-49.755 110.89-110.907c0-61.135-49.747-110.873-110.89-110.873zM247.537 479.9h17.060v-102.476h-17.060v102.476zM247.537 70.344h17.060v-102.244h-17.060v102.244zM0.1 232.53h102.36v-17.060h-102.36v17.060zM409.54 232.53h102.36v-17.060h-102.36v17.060zM430.971 411.514l12.063-12.063-71.322-71.322-12.063 12.063 71.322 71.322zM81.15 37.545l-12.063 12.063 71.322 71.322 12.063-12.063-71.322-71.322zM81.16 411.511l71.323-71.322-12.061-12.062-71.323 71.323 12.061 12.061zM430.995 37.543l-71.322 71.322 12.063 12.063 71.322-71.322-12.063-12.063z"/>
<glyph unicode="" d="M504.224 301.17l-248.22 119.47-248.228-119.479 34.978-21.091v-184.47h17.060v174.182l51.18-30.862v-211.56h290.020v211.509l103.21 62.301zM256.004 401.714l212.401-102.244-212.276-128.133-212.517 128.142 212.392 102.235zM383.954 44.42h-255.9v184.22l128.075-77.228 127.825 77.162v-184.154z"/>
<glyph unicode="" d="M400.618 339.505l14.436 14.428 14.627-14.628 18.093 18.093-41.317 41.318-18.093-18.093 14.627-14.628-14.436-14.428c-31.979 29.322-73.704 48.131-119.761 51.113v34.57h-25.59v-34.57c-102.384-6.597-183.394-91.681-183.394-195.74 0-108.358 87.833-196.19 196.19-196.19s196.19 87.832 196.19 196.19c0 51.113-19.559 97.645-51.572 132.565zM256 27.81c-98.77 0-179.13 80.368-179.13 179.13 0 98.777 80.36 179.13 179.13 179.13s179.13-80.353 179.13-179.13c0-98.762-80.36-179.13-179.13-179.13zM264.53 230.964v112.456h-17.060v-112.456c-9.913-3.532-17.060-12.896-17.060-24.024 0-11.129 7.147-20.492 17.060-24.025v-35.685h17.060v35.685c9.913 3.532 17.060 12.896 17.060 24.025s-7.147 20.492-17.060 24.024z"/>
<glyph unicode="" d="M310.078 275.148l-54.078 166.369-54.095-166.368h-176.215l142.794-102.351-54.828-166.314 142.344 103.171 142.327-103.172-54.811 166.314 142.794 102.351h-176.232zM327.306 167.457l38.301-116.175-109.607 79.44-109.624-79.44 42.233 128.079-10.196 7.297-99.645 71.43h135.531l41.701 128.259 41.684-128.259h135.531l-109.824-78.727 3.915-11.904z"/>
<glyph unicode="" d="M-0.329 282.944v-119.42h51.18v-102.36h17.060v102.36h131.232l124.601-100.827v324.139l-125.392-103.892h-198.681zM16.731 180.584v85.3h68.24v-85.3h-68.24zM209.239 269.807l97.445 80.743v-252.102l-101.502 82.134h-103.151v85.3h102.469l4.739 3.925zM441.815 371.317l-12.27-12.278c39.926-31.255 65.724-79.752 65.724-134.272 0-55.97-27.214-105.583-68.981-136.705l12.345-12.345c44.783 34.295 73.697 88.29 73.697 149.050-0.001 59.301-27.549 112.155-70.515 146.55zM386.986 316.48l-12.404-12.403c26.332-16.635 43.917-45.924 43.917-79.31 0-34.861-19.151-65.283-47.457-81.46l12.428-12.429c31.255 19.61 52.088 54.271 52.088 93.889 0.001 38.143-19.258 71.763-48.572 91.713z"/>
<glyph unicode="" d="M255.512 185.611c-37.627 0-68.24-30.613-68.24-68.24s30.613-68.24 68.24-68.24c37.627 0 68.24 30.613 68.24 68.24s-30.612 68.24-68.24 68.24zM255.512 66.191c-28.223 0-51.18 22.958-51.18 51.18s22.957 51.18 51.18 51.18c28.222 0 51.18-22.958 51.18-51.18s-22.958-51.18-51.18-51.18zM255.512 262.381c-57.586 0-107.291-33.82-130.682-82.576l12.77-12.762c19.434 45.949 64.966 78.277 117.912 78.277s98.478-32.329 117.913-78.277l12.769 12.762c-23.391 48.756-73.096 82.576-130.682 82.576zM256.345 398.869c-95.213 0-179.48-47.565-230.443-120.128l12.228-12.229c47.682 69.557 127.701 115.297 218.215 115.297 90.090 0 169.758-45.316 217.524-114.322l12.229 12.229c-51.039 72.013-134.964 119.153-229.753 119.153zM256.345 330.629c-76.454 0-143.603-40.467-181.254-101.077l12.42-12.412c34.204 57.661 97.062 96.429 168.834 96.429 71.339 0 133.89-38.285 168.226-95.379l12.378 12.378c-37.768 60.044-104.583 100.061-180.604 100.061z"/>
<glyph unicode="" d="M380.985 177.497l55.911-55.936h-100.743l-208.186 221.78h-85.517v-17.060h78.137l208.185-221.78h108.124l-55.761-55.778 12.062-12.062 76.353 76.378-76.503 76.52zM120.587 121.561h-78.137v-17.060h85.517l82.601 87.999-12.445 11.679zM336.169 326.281h100.727l-55.761-55.778 12.062-12.062 76.353 76.378-76.503 76.52-12.062-12.062 55.911-55.936h-108.124l-82.967-88.716 12.461-11.645z"/>
<glyph unicode="" d="M51.28 428.72v-409.44h409.44v409.44h-409.44zM443.66 36.34h-375.32v375.32h375.32v-375.32zM145.093 266.65c0-61.251 49.656-110.89 110.899-110.89s110.881 49.639 110.881 110.89v59.71h17.077v17.060h-51.18v-17.060h17.043v-59.71c0-51.738-42.091-93.83-93.821-93.83-51.746 0-93.839 42.092-93.839 93.83v59.71h17.077v17.060h-51.18v-17.060h17.043v-59.71z"/>
<glyph unicode="" d="M418.070 445.78c-37.685 0-68.24-30.563-68.24-68.24 0-6.539 0.975-12.853 2.691-18.842l-199.497-83.618c-11.795 20.434-33.821 34.22-59.094 34.22-37.677 0-68.24-30.563-68.24-68.24 0-37.685 30.563-68.24 68.24-68.24 19.743 0 37.486 8.439 49.947 21.85l128.55-92.389c-5.022-9.504-7.897-20.317-7.897-31.813 0-37.693 30.563-68.249 68.24-68.249s68.24 30.555 68.24 68.249c0 37.677-30.563 68.231-68.24 68.231-20.042 0-38.018-8.705-50.505-22.465l-128.375 92.239c5.282 9.688 8.28 20.784 8.28 32.587 0 6.339-0.932 12.454-2.549 18.285l199.647 83.684c11.853-20.158 33.72-33.736 58.802-33.736 37.686 0 68.24 30.554 68.24 68.248 0 37.676-30.554 68.239-68.24 68.239zM332.77 121.64c28.222 0 51.18-22.958 51.18-51.171 0-28.222-22.958-51.189-51.18-51.189s-51.18 22.966-51.18 51.189c0 28.213 22.958 51.171 51.18 51.171zM93.93 189.88c-28.222 0-51.18 22.958-51.18 51.18s22.958 51.18 51.18 51.18 51.18-22.958 51.18-51.18c0-28.221-22.958-51.18-51.18-51.18zM418.070 326.352c-28.222 0-51.18 22.966-51.18 51.188s22.958 51.18 51.18 51.18c28.222 0 51.18-22.958 51.18-51.18s-22.958-51.188-51.18-51.188z"/>
<glyph unicode="" d="M256 445.78c-108.358 0-196.19-42.009-196.19-93.839v-255.9c0-51.813 87.832-93.821 196.19-93.821 108.34 0 196.19 42.009 196.19 93.821v255.9c0 51.83-87.85 93.839-196.19 93.839zM256 428.72c105.559 0 179.13-40.459 179.13-76.779 0-36.303-73.571-76.761-179.13-76.761-105.576 0-179.13 40.459-179.13 76.761 0 36.32 73.554 76.779 179.13 76.779zM435.13 113.101v-17.060c0-36.303-73.571-76.761-179.13-76.761-105.576 0-179.13 40.459-179.13 76.761v47.049c30.621-32.737 99.277-55.57 179.13-55.57 79.835 0 148.508 22.832 179.13 55.57v-29.989zM435.13 181.341c0-36.303-73.571-76.761-179.13-76.761-105.576 0-179.13 40.459-179.13 76.761v47.049c30.621-32.737 99.277-55.57 179.13-55.57 79.835 0 148.508 22.832 179.13 55.57v-47.049zM435.13 266.641c0-36.303-73.571-76.761-179.13-76.761-105.576 0-179.13 40.459-179.13 76.761v47.049c30.621-32.737 99.277-55.57 179.13-55.57 79.835 0 148.508 22.832 179.13 55.57v-47.049z"/>
<glyph unicode="" d="M457.463 43.639l-116.205 116.217c23.358 28.089 37.419 64.167 37.419 103.543 0 89.515-72.554 162.070-162.070 162.070-89.498 0-162.070-72.555-162.070-162.070 0-89.498 72.572-162.070 162.070-162.070 39.385 0 75.454 14.061 103.543 37.419l116.205-116.217 21.108 21.108zM71.597 263.399c0 79.96 65.041 145.010 145.010 145.010 79.953 0 145.010-65.050 145.010-145.010s-65.057-145.010-145.010-145.010c-79.969 0-145.010 65.050-145.010 145.010z"/>
<glyph unicode="" d="M393.425 224c41.867 43.033 60.601 84.908 44.899 110.748-6.256 10.304-20.676 22.582-53.812 22.582-18.168 0-39.41-3.682-62.326-10.462-15.22 54.995-40.576 90.382-69.848 90.382-28.913 0-54.012-34.537-69.289-88.399-20.25 5.515-39.051 8.48-55.37 8.48-33.137 0-47.556-12.278-53.821-22.582-12.587-20.709-4.148-51.622 23.758-87.041 6.223-7.897 13.32-15.844 21.075-23.775-41.834-43-60.535-84.858-44.833-110.698 6.264-10.296 20.684-22.575 53.812-22.575 16.319 0 35.128 2.974 55.387 8.481 15.269-53.854 40.367-88.39 69.281-88.39 29.272 0 54.629 35.386 69.848 90.373 22.908-6.781 44.158-10.463 62.334-10.463 33.129 0 47.549 12.279 53.805 22.575 15.701 25.847-3.033 67.739-44.9 110.764zM384.512 340.271c13.911 0 32.012-2.499 39.235-14.386 10.404-17.118-5.256-51.755-42.484-89.957-13.578 12.704-29.063 25.39-46.198 37.668-1.849 20.201-4.807 39.21-8.722 56.628 21.649 6.481 41.567 10.047 58.169 10.047zM291.357 165.964c-11.679-7.097-23.491-13.636-35.261-19.6-11.762 5.964-23.574 12.503-35.253 19.6-12.295 7.472-24.049 15.311-35.22 23.366-0.725 11.179-1.192 22.692-1.192 34.67 0 11.995 0.467 23.516 1.199 34.711 10.93 7.897 22.658 15.711 35.186 23.324 11.687 7.097 23.499 13.636 35.278 19.609 11.778-5.973 23.591-12.512 35.278-19.609 9.638-5.857 18.668-11.854 27.364-17.893 0.975-12.837 1.517-26.214 1.517-40.142 0-13.92-0.542-27.306-1.517-40.134-8.695-6.040-17.734-12.046-27.379-17.902zM316.563 161.733c-1.674-13.77-3.923-26.64-6.555-38.652-11.288 3.982-22.916 8.689-34.703 14.036 8.306 4.482 16.627 9.229 24.915 14.27 5.58 3.389 11.020 6.855 16.343 10.346zM236.886 137.125c-14.228-6.464-28.222-11.954-41.659-16.402-3.232 14.228-5.856 29.764-7.705 46.516 7.939-5.415 16.044-10.738 24.457-15.852 8.289-5.041 16.602-9.789 24.907-14.262zM167.772 202.891c-8.738 6.931-17.018 13.978-24.674 21.084 7.514 7.006 15.81 14.078 24.674 21.142-0.259-6.938-0.4-13.977-0.4-21.116-0.001-7.141 0.141-14.18 0.4-21.11zM187.539 280.87c1.841 16.702 4.465 32.203 7.688 46.407 13.436-4.448 27.423-9.938 41.65-16.394-8.305-4.482-16.635-9.229-24.923-14.269-8.439-5.132-16.568-10.397-24.415-15.744zM275.312 310.882c11.787 5.348 23.407 10.046 34.695 14.028 2.632-12.003 4.881-24.865 6.555-38.635-5.323 3.499-10.754 6.948-16.326 10.338-8.288 5.040-16.619 9.788-24.924 14.269zM336.63 251.139c11.862-9.046 22.774-18.143 32.421-27.139-9.647-8.989-20.559-18.085-32.421-27.131 0.433 8.871 0.683 17.918 0.683 27.131 0.001 9.212-0.249 18.259-0.683 27.139zM252.338 420.19c19.435 0 40.168-29.639 53.546-78.553-16.094-5.598-32.829-12.629-49.789-20.9-19.393 9.455-38.469 17.268-56.645 23.199 13.396 47.532 33.763 76.254 52.888 76.254zM88.436 325.885c7.222 11.887 25.323 14.386 39.243 14.386 14.777 0 32.204-2.832 51.114-8.022-4.524-19.642-7.848-41.334-9.705-64.533-13.987-10.447-26.79-21.125-38.219-31.838-7.305 7.481-14.003 14.961-19.85 22.391-22.85 28.998-31.080 53.638-22.583 67.616zM127.67 107.72c-13.912 0-32.012 2.499-39.235 14.378-10.404 17.127 5.248 51.755 42.458 89.957 11.562-10.771 24.399-21.375 38.185-31.671 1.849-23.241 5.181-44.966 9.713-64.641-18.908-5.183-36.335-8.023-51.121-8.023zM252.338 27.81c-19.125 0-39.492 28.721-52.888 76.245 18.177 5.939 37.261 13.745 56.645 23.208 16.96-8.272 33.695-15.302 49.789-20.908-13.378-48.915-34.111-78.545-53.546-78.545zM423.746 122.098c-7.222-11.879-25.315-14.378-39.227-14.378-16.61 0-36.527 3.566-58.177 10.047 3.915 17.426 6.873 36.435 8.73 56.644 17.127 12.287 32.612 24.965 46.19 37.668 37.228-38.21 52.888-72.854 42.484-89.981z"/>
<glyph unicode="" d="M93.926 428.72v-409.44l162.070 119.42 162.078-119.42v409.44h-324.148zM401.014 53.042l-145.018 106.85-145.010-106.85v358.618h290.028v-358.618zM170.696 326.36h170.604v-17.060h-170.604v17.060zM170.696 258.12h170.604v-17.060h-170.604v17.060z"/>
<glyph unicode="" d="M434.888 112.818h-359.959l71.872 71.897-12.062 12.062-91.881-91.905 91.881-91.89 12.062 12.063-70.706 70.713h375.853v153.54h-17.060zM76.695 334.598h359.81l-71.289-71.305 12.061-12.062 91.865 91.88-91.881 91.907-12.062-12.063 71.272-71.297h-376.836v-153.54h17.060z"/>
<glyph unicode="" d="M443.66 181.371c0-103.477-84.183-187.66-187.66-187.66-103.476 0-187.66 84.183-187.66 187.66 0 103.234 83.8 187.251 186.952 187.643v-85.325l162.070 93.839-162.070 93.821v-85.275c-112.756-0.383-204.012-91.855-204.012-204.703 0-113.047 91.639-204.72 204.72-204.72 113.064 0 204.72 91.673 204.72 204.72h-17.060zM272.352 441.761l110.957-64.233-110.957-64.25v128.483z"/>
<glyph unicode="" d="M418.316 249.682c0.033 1.366 0.2 2.682 0.2 4.048 0 73.021-59.194 132.215-132.215 132.215-52.613 0-97.912-30.804-119.196-75.287-9.205 4.632-19.567 7.297-30.572 7.297-33.769 0-61.742-24.574-67.207-56.794-40.216-13.795-69.18-51.847-69.18-96.763 0-56.494 45.79-102.293 102.268-102.343l316.102 0.016c51.596 0.267 93.338 42.15 93.338 93.797 0 51.73-41.841 93.664-93.538 93.814zM418.424 79.131l-3.723-0.016h-312.27c-46.99 0.049-85.225 38.301-85.225 85.283 0 36.403 23.174 68.806 57.653 80.636l9.596 3.281 1.691 9.996c4.182 24.674 25.373 42.583 50.388 42.583 7.972 0 15.677-1.849 22.9-5.481l15.553-7.813 7.505 15.693c19.068 39.851 59.818 65.591 103.81 65.591 63.5 0 115.155-51.647 115.155-115.155 0-0.35-0.042-0.717-0.067-1.066-0.049-0.85-0.107-1.699-0.125-2.566l-0.433-17.41 17.435-0.067c42.2-0.117 76.528-34.553 76.528-76.754-0.001-42.082-34.263-76.518-76.371-76.735zM255.996 138.825c-32.92 0-59.71 26.773-59.71 59.71 0 32.921 26.79 59.71 59.71 59.71v-31.505l64.2 37.069-64.2 37.086v-25.59c-42.4 0-76.77-34.37-76.77-76.77s34.37-76.77 76.77-76.77c42.392 0 76.77 34.37 76.77 76.77h-17.060c0-32.937-26.79-59.71-59.71-59.71z"/>
<glyph unicode="" d="M449.825 334.434c-0.175 0.058-0.308 0.191-0.491 0.233l-361.976 85.3c-4.589 1.058-9.188-1.766-10.262-6.347-1.075-4.59 1.766-9.18 6.348-10.263l290.536-68.464h-307.314c-13.204 0-23.916-10.704-23.916-23.916v-259.257c0-13.203 10.713-23.907 23.916-23.907h378.668c13.212 0 23.916 10.704 23.916 23.907v259.256c0 11.67-8.363 21.358-19.425 23.458zM452.19 51.719c0-3.774-3.073-6.847-6.856-6.847h-378.668c-3.782 0-6.856 3.073-6.856 6.847v259.257c0 3.781 3.074 6.856 6.856 6.856h378.668c3.782 0 6.856-3.074 6.856-6.856v-259.257zM196.223 198.419c-7.064 0-12.811-5.73-12.811-12.795 0-7.047 5.748-12.795 12.811-12.795 7.047 0 12.779 5.748 12.779 12.795 0 7.065-5.731 12.795-12.779 12.795zM102.46 185.624c0 7.065-5.748 12.795-12.803 12.795-7.048 0-12.787-5.73-12.787-12.795 0-7.047 5.74-12.795 12.787-12.795 7.055 0 12.803 5.749 12.803 12.795zM302.924 198.419c-7.047 0-12.804-5.73-12.804-12.795 0-7.047 5.757-12.795 12.804-12.795 7.072 0 12.786 5.748 12.786 12.795 0 7.065-5.714 12.795-12.786 12.795zM149.367 173.538c-7.048 0-12.787-5.731-12.787-12.787s5.74-12.803 12.787-12.803c7.055 0 12.803 5.747 12.803 12.803s-5.748 12.787-12.803 12.787zM256 160.034c0 7.056-5.73 12.787-12.795 12.787-7.047 0-12.795-5.731-12.795-12.787s5.748-12.803 12.795-12.803c7.065 0.001 12.795 5.748 12.795 12.803zM149.367 224.002c-7.048 0-12.787-5.74-12.787-12.787 0-7.072 5.74-12.803 12.787-12.803 7.055 0 12.803 5.73 12.803 12.803 0 7.047-5.748 12.787-12.803 12.787zM243.205 198.412c7.065 0 12.795 5.73 12.795 12.803 0 7.047-5.73 12.787-12.795 12.787-7.047 0-12.795-5.74-12.795-12.787 0-7.073 5.748-12.803 12.795-12.803zM106.725 146.998c-7.055 0-12.795-5.73-12.795-12.795s5.74-12.795 12.795-12.795c7.047 0 12.795 5.731 12.795 12.795s-5.748 12.795-12.795 12.795zM285.864 146.998c-7.072 0-12.804-5.73-12.804-12.795s5.731-12.795 12.804-12.795c7.056 0 12.786 5.731 12.786 12.795s-5.73 12.795-12.786 12.795zM106.725 249.592c-7.055 0-12.795-5.748-12.795-12.804s5.74-12.786 12.795-12.786c7.047 0 12.795 5.73 12.795 12.786 0 7.055-5.748 12.804-12.795 12.804zM285.864 224.002c7.056 0 12.786 5.73 12.786 12.786 0 7.055-5.73 12.804-12.786 12.804-7.072 0-12.804-5.748-12.804-12.804s5.731-12.786 12.804-12.786zM140.196 113.112c-7.039 0-12.795-5.731-12.795-12.787s5.756-12.803 12.795-12.803c7.081 0 12.795 5.748 12.795 12.803s-5.714 12.787-12.795 12.787zM251.402 113.112c-7.056 0-12.795-5.731-12.795-12.787s5.739-12.803 12.795-12.803c7.064 0 12.795 5.748 12.795 12.803s-5.731 12.787-12.795 12.787zM140.845 258.122c7.081 0 12.795 5.73 12.795 12.786 0 7.072-5.714 12.804-12.795 12.804-7.038 0-12.795-5.731-12.795-12.804 0-7.056 5.757-12.786 12.795-12.786zM251.402 283.712c-7.056 0-12.795-5.731-12.795-12.804 0-7.056 5.739-12.786 12.795-12.786 7.064 0 12.795 5.73 12.795 12.786 0 7.072-5.731 12.804-12.795 12.804zM196.216 146.998c-7.056 0-12.804-5.73-12.804-12.795 0-7.047 5.748-12.795 12.804-12.795 7.055 0 12.786 5.748 12.786 12.795 0 7.064-5.731 12.795-12.786 12.795zM196.216 96.068c-7.056 0-12.804-5.748-12.804-12.804s5.748-12.803 12.804-12.803c7.055 0 12.786 5.748 12.786 12.803s-5.731 12.804-12.786 12.804zM196.216 249.592c-7.056 0-12.804-5.748-12.804-12.804s5.748-12.786 12.804-12.786c7.055 0 12.786 5.73 12.786 12.786 0 7.055-5.731 12.804-12.786 12.804zM196.216 300.772c-7.056 0-12.804-5.731-12.804-12.787s5.748-12.803 12.804-12.803c7.055 0 12.786 5.748 12.786 12.803s-5.731 12.787-12.786 12.787zM392.497 283.712c-14.128 0-25.607-11.454-25.607-25.582s11.479-25.581 25.607-25.581c14.111 0 25.573 11.454 25.573 25.581 0 14.128-11.462 25.582-25.573 25.582zM392.497 249.608c-4.715 0-8.547 3.824-8.547 8.521s3.833 8.522 8.547 8.522c4.698 0 8.513-3.824 8.513-8.522s-3.815-8.521-8.513-8.521zM392.497 215.472c-14.128 0-25.607-11.454-25.607-25.582s11.479-25.581 25.607-25.581c14.111 0 25.573 11.454 25.573 25.581s-11.462 25.582-25.573 25.582zM392.497 181.368c-4.715 0-8.547 3.824-8.547 8.521s3.833 8.522 8.547 8.522c4.698 0 8.513-3.824 8.513-8.522s-3.815-8.521-8.513-8.521z"/>
<glyph unicode="" d="M119.52 283.71c-9.43 0-17.060-7.639-17.060-17.060s7.63-17.060 17.060-17.060c9.413 0 17.060 7.639 17.060 17.060s-7.647 17.060-17.060 17.060zM170.7 283.71c-9.43 0-17.060-7.639-17.060-17.060s7.63-17.060 17.060-17.060c9.413 0 17.060 7.639 17.060 17.060s-7.647 17.060-17.060 17.060zM469.25 351.95h-93.83v85.3h-238.84v-85.3h-93.83c-4.715 0-8.53-3.815-8.53-8.53v-255.9c0-4.715 3.815-8.53 8.53-8.53h93.83v-68.24h238.84v68.24h93.83c4.714 0 8.53 3.815 8.53 8.53v255.9c0 4.715-3.816 8.53-8.53 8.53zM153.64 420.19h204.72v-68.24h-204.72v68.24zM358.36 27.81h-204.72v153.54h204.72v-153.54zM460.72 96.050h-85.3v102.36h-238.84v-102.36h-85.3v238.84h409.44v-238.84z"/>
<glyph unicode="" d="M256 224.009l238.84-136.489v272.96l-238.84-136.471zM477.78 116.917l-187.394 107.092 187.394 107.074v-214.166zM17.16 224.009l238.84-136.489v272.96l-238.84-136.471zM238.94 116.917l-187.394 107.092 187.394 107.074v-214.166z"/>
<glyph unicode="" d="M244.888 437.25h17.060v-204.72h-17.060v204.72zM338.718 402.731v-18.868c62.101-30.63 104.942-94.596 104.942-168.392 0-103.476-84.183-187.66-187.66-187.66-103.476 0-187.66 84.184-187.66 187.66 0 71.739 40.477 134.173 99.778 165.744v19.183c-69.081-32.888-116.838-103.318-116.838-184.928 0-113.064 91.657-204.72 204.72-204.72s204.72 91.656 204.72 204.72c0 83.618-50.155 155.481-122.002 187.261z"/>
<glyph unicode="" d="M315.71 364.745v42.65h-119.42v-42.65h-145.010v-324.14h409.44v324.14h-145.010zM213.35 390.335h85.3v-25.59h-85.3v25.59zM196.29 347.685h247.37v-136.48h-127.95v34.12h-119.42v-34.12h-127.95v136.48h127.95zM298.65 228.265v-51.18h-85.3v51.18h85.3zM68.34 57.665v136.48h127.95v-34.12h119.42v34.12h127.95v-136.48h-375.32z"/>
<glyph unicode="" d="M256 437.248c-117.787 0-213.25-95.463-213.25-213.25s95.463-213.246 213.25-213.246c117.788 0 213.25 95.458 213.25 213.246s-95.462 213.25-213.25 213.25zM256 27.812c-108.174 0-196.19 88.012-196.19 196.186s88.016 196.19 196.19 196.19c108.174 0 196.19-88.015 196.19-196.19 0-108.174-88.016-196.186-196.19-196.186zM264.53 351.948h-17.060v-119.42h-118.854v-17.060h118.854v-118.854h17.060v118.854h119.42v17.060h-119.42z"/>
<glyph unicode="" d="M119.52 373.425l256.158-149.425-256.158-149.424v298.849zM102.46 403.13v-358.26l307.080 179.13-307.080 179.13z"/>
<glyph unicode="" d="M145.974-7.426l-21.276 100.294-101.084 22.349 20.65 39.593 92.555 5.057c4.749 6.181 15.361 19.742 21.992 26.365l84.334 84.342-175.823 86.208 44.516 44.507 222.913-39.102 78.928 78.928c9.355 9.363 23.932 14.311 42.15 14.311 12.42 0 22.316-2.283 22.732-2.382l4.798-1.124 1.424-4.715c7.497-24.807 2.99-52.771-10.713-66.482l-79.302-79.303 38.951-222.004-44.508-44.516-85.866 175.115-78.769-78.786c-8.28-8.28-25.964-24.574-32.529-30.589l-6.889-86.807-39.184-21.259zM49.037 127.063l90.073-19.901 18.81-88.699 10.962 5.948 6.689 84.284 2.482 2.266c0.25 0.225 24.674 22.541 34.453 32.321l95.655 95.671 85.866-175.115 21.35 21.358-38.951 222.021 85.583 85.567c7.43 7.43 11.928 25.564 7.738 44.524-3.449 0.516-8.413 1.058-13.919 1.058-9.48 0-22.391-1.616-30.089-9.313l-85.192-85.208-222.928 39.101-21.358-21.35 175.823-86.208-101.211-101.22c-7.721-7.713-22.691-27.547-22.841-27.739l-2.391-3.165-90.748-4.964-5.856-11.237z"/>
<glyph unicode="" d="M426.598 343.42v68.24h-400.906v-307.080h59.71v-68.24h400.906v307.080h-59.71zM42.752 121.64v272.96h366.786v-51.18h-324.136v-221.78h-42.65zM469.248 53.4h-366.786v272.96h366.786v-272.96z"/>
<glyph unicode="" d="M369.381 454.31h-226.761c-12.754 0-23.1-10.355-23.1-23.108v-414.413c0-12.77 10.346-23.099 23.1-23.099h226.761c12.754 0 23.099 10.329 23.099 23.099v414.413c0 12.753-10.345 23.108-23.099 23.108zM375.42 16.789c0-3.332-2.707-6.039-6.039-6.039h-226.761c-3.333 0-6.040 2.707-6.040 6.039v79.202h238.84v-79.202zM375.42 113.051h-238.84v272.669h238.84v-272.669zM375.42 402.78h-238.84v28.422c0 3.332 2.707 6.048 6.040 6.048h226.761c3.333 0 6.039-2.716 6.039-6.048v-28.422zM230.41 61.93h51.18v-17.060h-51.18v17.060z"/>
<glyph unicode="" d="M492.341 387.17l-68.023 68.015-16.644-16.651-23.291 23.274c-3.332 3.332-8.73 3.332-12.061 0l-138.214-138.222c-3.332-3.333-3.332-8.73 0-12.062 1.667-1.666 3.849-2.499 6.032-2.499 2.182 0 4.365 0.833 6.031 2.499l132.182 132.19 17.26-17.243-293.103-293.094 19.759-19.767c-8.313 4.115-17.376 6.214-26.44 6.214-15.31 0-30.621-5.84-42.3-17.527-1.199-1.183-2.349-2.466-3.449-3.807-0.549-0.641-1.066-1.308-1.566-1.974-0.6-0.75-1.166-1.541-1.715-2.333-0.417-0.583-0.833-1.15-1.216-1.732-24.807-37.294-25.923-108.624-25.923-108.624s2.599-0.133 7.097-0.133c20.492 0 80.152 2.807 111.373 34.020 18.593 18.601 22.341 46.398 11.295 68.748l21.108-21.1 321.808 321.808zM126.067 29.776c-19.042-19.034-52.446-25.606-76.27-27.856l38.836 38.835-12.063 12.062-37.202-37.202c3.032 22.757 9.063 50.33 20.476 67.465l0.483 0.682 0.416 0.592c0.367 0.533 0.75 1.082 1.416 1.924 0.283 0.374 0.566 0.749 1.066 1.349 0.75 0.899 1.517 1.766 2.366 2.607 8.080 8.080 18.81 12.529 30.238 12.529 11.412 0 22.158-4.448 30.238-12.529 16.661-16.667 16.661-43.79 0-60.458zM468.218 387.17l-101.178-101.178-43.9 43.891 101.178 101.178 43.9-43.891zM311.079 317.822l43.9-43.891-184.446-184.445-43.899 43.891 184.445 184.445z"/>
<glyph unicode="" d="M198.064 164.206l76.262-153.456 194.899 426.5-426.45-204.67 155.289-68.374zM202.596 180.834l-119.045 52.413 326.938 156.905-207.893-209.318zM273.693 50.151l-59.002 118.738 209.743 211.166-150.741-329.904z"/>
<glyph unicode="" d="M447.925 394.6v26.456c0 23.075-18.71 41.784-41.784 41.784h-274.676c-23.074 0-41.767-18.71-41.767-41.784v-26.456h-7.831c-19.259 0-34.853-15.611-34.853-34.862v-58.385c0-19.251 15.594-34.861 34.853-34.861l160.588 0.050c9.813 0 17.81-7.989 17.81-17.802v-58.86h-34.104v-204.72h85.3v204.72h-34.136v58.86c0 19.251-15.611 34.862-34.87 34.862h-21.125v-0.050h-139.462c-9.813 0-17.793 7.988-17.793 17.801v58.385c0 9.813 7.98 17.802 17.793 17.802h7.831v-26.465c0-23.075 18.693-41.775 41.767-41.775h274.675c23.075 0 41.784 18.7 41.784 41.775v26.465h17.060v17.060h-17.060zM294.401 2.22h-51.18v170.6h51.18v-170.6zM430.865 351.075c0-13.628-11.096-24.715-24.724-24.715h-274.676c-13.628 0-24.707 11.087-24.707 24.715v69.981c0 13.636 11.079 24.724 24.707 24.724h274.675c13.628 0 24.724-11.088 24.724-24.724v-69.981z"/>
<glyph unicode="" d="M256 428.72h-136.48c-40.818 0-68.24-27.422-68.24-68.24v-283.731c0-13.477 5.022-57.469 69.705-57.469h339.735v409.44h-204.72zM238.94 411.66v-163.194l-41.784 38.051-46.39-39.034v164.177h88.174zM119.52 411.66h14.186v-200.829l63 53.012 59.294-53.987v201.804h187.66v-281.49h-324.14c-21.709 0-39.318-6.48-51.18-17.81v248.12c0 31.088 20.092 51.18 51.18 51.18zM120.985 36.34c-39.109 0-50.413 17.743-52.304 34.721 0.033 26.331 19.026 42.049 50.839 42.049h324.14v-76.77h-322.675z"/>
<glyph unicode="" d="M444.473 412.837c-4.998 4.99-11.554 7.488-18.102 7.488-6.555 0-13.103-2.498-18.093-7.488l-75.295-75.287v14.261h-272.96v-324.136h324.14v272.956h-15.693l76.003 76.013c10.005 9.978 10.005 26.196 0 36.193zM367.103 44.735h-290.020v290.016h253.11l-133.69-133.681v-36.919h35.503l135.097 135.114v-254.53zM432.411 388.704l-207.469-207.493h-11.379v12.795l206.786 206.777c2.166 2.166 4.698 2.482 6.022 2.482s3.866-0.324 6.039-2.498c2.183-2.174 2.508-4.715 2.508-6.039 0.001-1.317-0.324-3.841-2.507-6.024z"/>
<glyph unicode="" d="M17.16 360.48v-272.96l238.84 136.489-238.84 136.471zM34.22 331.083l187.394-107.075-187.394-107.091v214.166zM256 360.48v-272.96l238.84 136.489-238.84 136.471zM273.060 331.083l187.394-107.075-187.394-107.091v214.166z"/>
<glyph unicode="" d="M145.11 437.25v-238.84h-102.36c0 0 0-105.425 0-139.495 0-34.078 31.721-48.165 55.228-48.165 23.499 0 260.165 0 320.092 0 25.857 0 51.18 25.149 51.18 51.18 0 18.793 0 375.32 0 375.32h-324.14zM97.978 27.81c-10.621 0-38.168 5.59-38.168 31.105v122.435h85.3v-115.080c0-11.42-14.927-38.46-38.459-38.46h-8.673zM452.19 61.93c0-16.576-17.534-34.12-34.12-34.12h-273.801c11.487 11.971 17.901 27.689 17.901 38.46v353.92h290.020v-358.26zM196.29 386.070h221.78v-17.060h-221.78v17.060zM196.29 155.76h221.78v-17.060h-221.78v17.060zM196.29 96.050h221.78v-17.060h-221.78v17.060zM418.070 326.36h-221.78v-127.95h221.78v127.95zM401.010 215.47h-187.66v93.83h187.66v-93.83z"/>
<glyph unicode="" d="M42.75 343.408h221.78v-17.060h-221.78v17.060zM42.75 266.638h221.78v-17.060h-221.78v17.060zM42.75 189.868h221.78v-17.060h-221.78v17.060zM349.83 333.212l119.42-15.394c0 85.3-68.24 102.36-136.48 119.445v-324.165c-10.212 0-26.456 0-52.563 0-50.138 0-66.857-26.531-66.857-50.764 0-20.558 15.386-51.596 68.24-51.596 75.571 0 68.24 60.676 68.24 102.36v220.114zM450.657 337.419l-100.827 12.994v64.809c56.695-15.353 93.106-32.213 100.827-77.803zM320.275 39.535c-7.68-7.789-20.701-11.737-38.685-11.737-48.714 0-51.18 28.773-51.18 34.536 0 21.417 18.152 33.704 49.797 33.704h52.563v-13.103h0.042c-0.509-17.186-2.949-33.687-12.537-43.4z"/>
<glyph unicode="" d="M460.72 456.721l-281.49-99.578v-246.679c-13.303 15.786-33.195 25.84-55.445 25.84-40.035 0-72.505-32.47-72.505-72.521 0-40.035 32.47-72.505 72.505-72.505 39.618 0 71.771 31.804 72.438 71.264h0.067v282.54l247.37 87.516v-228.311c-13.303 15.786-33.195 25.831-55.454 25.831-40.042 0-72.496-32.454-72.496-72.505 0-40.042 32.454-72.505 72.496-72.505s72.514 32.463 72.514 72.505c0 1.374-0.133 2.715-0.208 4.065h0.208v295.043zM123.785 8.339c-30.572 0-55.445 24.873-55.445 55.445 0 30.579 24.873 55.461 55.445 55.461s55.445-24.882 55.445-55.461c0-30.572-24.873-55.445-55.445-55.445zM388.206 102.169c-30.572 0-55.436 24.873-55.436 55.445s24.865 55.445 55.436 55.445c30.58 0 55.454-24.873 55.454-55.445s-24.873-55.445-55.454-55.445z"/>
<glyph unicode="" d="M264.53 343.004v26.356c0 7.789 16.46 18.093 29.688 26.382 18.951 11.862 38.552 24.141 38.552 42.026v42.132h-17.060v-42.133c0-8.439-16.935-19.042-30.547-27.572-18.534-11.596-37.693-23.599-37.693-40.835v-26.356c-66.666-4.282-119.42-58.011-119.42-123.827v-126.833c0-68.615 57.286-124.244 127.95-124.244s127.95 55.628 127.95 124.244v126.833c0 65.816-52.755 119.545-119.42 123.827zM366.89 219.177v-12.237h-102.36v119.004c57.16-4.241 102.36-50.448 102.36-106.767zM145.11 219.177c0 56.319 45.199 102.526 102.36 106.767v-119.004h-102.36v12.237zM256-14.84c-61.143 0-110.89 48.081-110.89 107.184v97.536h221.78v-97.536c0-59.103-49.748-107.184-110.89-107.184z"/>
<glyph unicode="" d="M51.28 275.18c-28.272 0-51.18-22.916-51.18-51.18s22.908-51.18 51.18-51.18c28.255 0 51.18 22.916 51.18 51.18s-22.925 51.18-51.18 51.18zM51.28 189.88c-18.826 0-34.12 15.302-34.12 34.12s15.294 34.12 34.12 34.12c18.809 0 34.12-15.303 34.12-34.12s-15.311-34.12-34.12-34.12zM460.72 275.18c-28.272 0-51.18-22.916-51.18-51.18s22.908-51.18 51.18-51.18c28.255 0 51.18 22.916 51.18 51.18s-22.925 51.18-51.18 51.18zM460.72 189.88c-18.809 0-34.12 15.302-34.12 34.12s15.311 34.12 34.12 34.12c18.809 0 34.12-15.303 34.12-34.12s-15.311-34.12-34.12-34.12zM256 275.18c-28.272 0-51.18-22.916-51.18-51.18s22.908-51.18 51.18-51.18c28.255 0 51.18 22.916 51.18 51.18s-22.925 51.18-51.18 51.18zM256 189.88c-18.809 0-34.12 15.302-34.12 34.12s15.311 34.12 34.12 34.12c18.809 0 34.12-15.303 34.12-34.12s-15.311-34.12-34.12-34.12z"/>
<glyph unicode="" d="M158.105 399.169c-13.545-27.473-20.717-57.819-20.717-89.023 0-111.631 90.822-202.446 202.454-202.446 32.838 0 64.567 7.83 92.989 22.591-34.395-61.901-99.969-101.918-173.799-101.918-109.848 0-199.222 89.365-199.222 199.214 0 71.854 38.552 136.521 98.295 171.582zM204.645 436.687c-93.072-24.139-161.895-108.474-161.895-209.101 0-119.437 96.846-216.274 216.282-216.274 102.194 0 187.611 70.964 210.218 166.218-33.395-32.62-79.019-52.771-129.408-52.771-102.385 0-185.394 83-185.394 185.386 0.001 48.982 19.143 93.406 50.197 126.542v0z"/>
<glyph unicode="" d="M477.78 113.11v307.080h-443.56v-307.080h213.25v-68.24h-59.71v-17.060h136.48v17.060h-59.71v68.24h213.25zM51.28 403.13h409.44v-272.96h-409.44v272.96z"/>
<glyph unicode="" d="M256.042 121.971c51.691 0 93.61 41.91 93.61 93.61v170.217c0 51.7-41.919 93.602-93.61 93.602s-93.61-41.902-93.61-93.602v-170.216c0-51.7 41.918-93.611 93.61-93.611zM179.452 385.798c0 42.227 34.356 76.582 76.59 76.582s76.59-34.356 76.59-76.582v-170.216c0-42.234-34.356-76.59-76.59-76.59s-76.59 34.356-76.59 76.59v170.216zM383.65 300.69v-85.109c0-70.382-57.26-127.65-127.65-127.65s-127.65 57.268-127.65 127.65v85.109h-17.020v-85.109c0-77.28 60.958-140.415 137.291-144.296h-1.089v-85.665h-76.632v-17.020h170.2v17.020h-76.548v85.665h-1.172c76.333 3.881 137.29 67.016 137.29 144.296v85.109h-17.020z"/>
<glyph unicode="" d="M51.28 369.010v-68.24h409.44v68.24h-409.44zM443.66 317.83h-375.32v34.12h375.32v-34.12zM51.28 189.88h409.44v68.24h-409.44v-68.24zM68.34 241.060h375.32v-34.12h-375.32v34.12zM51.28 78.99h409.44v68.24h-409.44v-68.24zM68.34 130.17h375.32v-34.12h-375.32v34.12z"/>
<glyph unicode="" d="M368.872 425.596l-10.512 5.256-8.53-4.256v-0.009l-93.83-46.914-102.36 51.18-110.89-55.445v-358.26l110.89 55.445 102.36-51.18 102.36 51.18 110.89-55.445v358.26l-100.378 50.188zM145.11 87.404l-85.3-42.65v320.108l85.3 42.65v-320.108zM247.47 44.754l-85.3 42.65v320.108l85.3-42.65v-320.108zM349.83 87.404l-85.3-42.65v320.108l85.3 42.65v-320.108zM452.19 44.754l-85.3 42.65v320.108l85.3-42.65v-320.108z"/>
<glyph unicode="" d="M256.009 462.848c84.659 0 153.531-68.881 153.531-153.548 0-26.923-7.13-53.463-20.633-76.779l-132.907-230.301-132.923 230.318c-13.487 23.3-20.617 49.839-20.617 76.762 0 84.667 68.881 153.548 153.549 153.548zM256.009 249.598c32.921 0 59.701 26.782 59.701 59.702 0 32.911-26.781 59.693-59.701 59.693-32.929 0-59.719-26.782-59.719-59.693 0-32.92 26.789-59.702 59.719-59.702zM256.009 479.908c-94.222 0-170.609-76.403-170.609-170.608 0-31.113 8.371-60.194 22.916-85.309l147.684-255.899 147.684 255.9c14.545 25.115 22.916 54.195 22.916 85.309 0 94.204-76.387 170.607-170.591 170.607v0zM256.009 266.658c-23.557 0-42.659 19.084-42.659 42.642 0 23.532 19.101 42.633 42.659 42.633 23.549 0 42.641-19.101 42.641-42.633 0-23.558-19.093-42.642-42.641-42.642v0z"/>
<glyph unicode="" d="M451.898 360.482h-409.148v-272.963h426.5v272.963h-17.352zM434.838 343.422l-164.769-164.769c-7.513-7.513-20.626-7.513-28.139 0l-164.794 164.769h357.702zM59.81 336.625l110.773-110.757-110.773-110.773v221.53zM73.421 104.582l109.233 109.216 47.214-47.207c6.972-6.981 16.261-10.83 26.132-10.83s19.159 3.849 26.132 10.83l47.214 47.214 109.224-109.223h-365.149zM452.19 115.086l-110.773 110.782 110.773 110.782v-221.564z"/>
<glyph unicode="" d="M467.659 266.529l-185.528 185.528c-6.972 6.981-16.26 10.829-26.132 10.829-9.871 0-19.158-3.848-26.131-10.829l-187.118-187.094v-279.849h426.5v279.824l-1.591 1.591zM70.073 268.162l171.858 171.833c7.514 7.514 20.626 7.514 28.14 0l179.938-179.946-122.62-122.62-45.257 45.266c-6.972 6.98-16.26 10.829-26.132 10.829-9.871 0-19.158-3.849-26.131-10.829l-45.932-45.924-122.627 122.628 8.763 8.763zM171.867 124.718l-1.267-1.283-0.016 0.017-110.774-110.765v224.087l112.057-112.056zM73.421 2.174l9.171 9.171h0.026l159.312 159.288c7.514 7.514 20.626 7.514 28.14 0l168.501-168.459h-365.15zM452.19 230.885v-218.207l-112.739 112.69 112.739 112.739v-7.222z"/>
<glyph unicode="" d="M467.659 266.529l-185.527 185.527c-6.972 6.981-16.261 10.829-26.132 10.829s-19.159-3.848-26.132-10.829l-40.451-40.442h-61.359v-61.351l-85.308-85.3v-279.849h426.5v279.824l-1.591 1.591zM450.007 260.048l-66.057-66.057v132.115l66.057-66.058zM241.931 439.995c7.514 7.514 20.626 7.514 28.139 0l28.381-28.38h-84.908l28.388 28.38zM315.51 394.554l51.38-51.388v-166.235l-39.502-39.502-45.257 45.266c-6.972 6.98-16.261 10.829-26.132 10.829s-19.159-3.849-26.132-10.829l-45.931-45.924-38.818 38.818v218.965h170.392zM70.072 268.162l57.986 57.978v-133.49l-66.748 66.749 8.762 8.763zM59.81 223.072v13.702l112.056-112.056-1.266-1.283-0.017 0.017-110.773-110.765v210.385zM73.421 2.174l9.171 9.171h0.025l159.313 159.288c7.514 7.514 20.626 7.514 28.139 0l168.501-168.459h-365.149zM452.19 234.242v-221.564l-112.739 112.69 112.739 112.739v-3.865zM196.29 343.374h119.42v-17.060h-119.42v17.060zM196.29 241.014h119.42v-17.060h-119.42v17.060zM196.29 292.194h85.3v-17.060h-85.3v17.060z"/>
<glyph unicode="" d="M341.517 437.25v-238.623c0-47.231-38.285-85.517-85.517-85.517-47.249 0-85.517 38.285-85.517 85.517v238.623h-102.143v-238.84c0-103.643 84.017-187.66 187.66-187.66s187.66 84.017 187.66 187.66v238.84h-102.143zM426.6 420.19v-51.18h-68.023v51.18h68.023zM153.423 420.19v-51.18h-68.023v51.18h68.023zM256 27.81c-94.080 0-170.6 76.528-170.6 170.6v153.54h68.023v-153.323c0-56.562 46.015-102.577 102.577-102.577 56.561 0 102.577 46.015 102.577 102.577v153.323h68.023v-153.54c0-94.072-76.537-170.6-170.6-170.6z"/>
<glyph unicode="" d="M327.388 306.818l-148.242-147.143 12.046-12.094 148.242 147.142zM110.99 130.17c-51.738 0-93.83 42.092-93.83 93.83 0 51.739 42.092 93.83 93.83 93.83 25.057 0 47.789-9.929 64.634-25.982l0.008 0.092 0.867-0.758 33.212-33.062h-30.481v-17.060h59.71v59.71h-17.060v-30.696l-33.337 33.187-0.075-0.075c-20.009 19.584-47.34 31.704-77.478 31.704-61.143 0-110.89-49.747-110.89-110.89s49.747-110.89 110.89-110.89c31.529 0 59.96 13.295 80.177 34.495l-12.054 12.062c-17.118-18.118-41.292-29.497-68.123-29.497zM401.010 334.89c-28.239 0-53.962-10.696-73.554-28.139l12.053-12.054c16.486 14.361 37.969 23.133 61.501 23.133 51.738 0 93.83-42.091 93.83-93.83s-42.092-93.83-93.83-93.83c-24.966 0-47.623 9.863-64.45 25.815l-0.025-0.158-56.494 56.286-12.113-12.020 56.562-56.345 0.1 0.101c19.918-18.993 46.798-30.739 76.42-30.739 61.143 0 110.89 49.748 110.89 110.89s-49.747 110.89-110.89 110.89z"/>
<glyph unicode="" d="M256 377.538c-93.547 0-166.468-58.552-255.9-153.481 77.053-81.169 141.711-153.595 255.9-153.595s198.114 91.686 255.9 151.878c-59.152 70.515-143.086 155.198-255.9 155.198zM256 87.522c-101.369 0-162.561 62.871-232.376 136.518 83.068 86.616 149.117 136.438 232.376 136.438 98.57 0 175.606-71.080 232.925-137.454-56.369-58.777-132.689-135.502-232.925-135.502zM256 326.35c-56.445 0-102.36-45.916-102.36-102.352s45.915-102.352 102.36-102.352 102.36 45.915 102.36 102.351-45.915 102.353-102.36 102.353zM256 138.706c-47.032 0-85.3 38.26-85.3 85.291s38.268 85.292 85.3 85.292 85.3-38.26 85.3-85.292c0-47.030-38.268-85.291-85.3-85.291zM256 283.708c-32.921 0-59.71-26.789-59.71-59.71s26.789-59.71 59.71-59.71c32.921 0 59.71 26.79 59.71 59.71 0 32.921-26.789 59.71-59.71 59.71zM256 181.348c-23.516 0-42.65 19.134-42.65 42.65s19.134 42.65 42.65 42.65 42.65-19.134 42.65-42.65c0-23.516-19.134-42.65-42.65-42.65z"/>
<glyph unicode="" d="M366.89 232.53v102.36c0 61.234-49.647 110.89-110.874 110.89-61.251 0-110.906-49.656-110.906-110.89v-102.36h-59.71v-230.31h341.2v230.31h-59.71zM162.17 334.89c0 51.738 42.1 93.83 93.846 93.83 51.73 0 93.814-42.092 93.814-93.83v-102.36h-187.66v102.36zM409.54 19.28h-307.080v196.19h307.080v-196.19z"/>
<glyph unicode="" d="M136.58 479.9v-51.18l59.71-102.36v-358.26h119.42v358.26l59.71 102.36v51.18h-238.84zM153.64 462.84h204.72v-29.505l-2.69-4.615h-199.34l-2.69 4.615v29.505zM213.35-14.84v34.195h85.3v-34.195h-85.3zM300.974 334.957l-2.324-3.982v-294.56h-85.3v294.56l-47.065 80.685h179.43l-44.741-76.703zM256 241.060c-14.128 0-25.59-11.462-25.59-25.59v-34.153c0-14.12 11.462-25.59 25.59-25.59 14.127 0 25.59 11.47 25.59 25.59v34.153c0 14.128-11.463 25.59-25.59 25.59zM264.53 181.317c0-4.706-3.823-8.53-8.53-8.53s-8.53 3.824-8.53 8.53v34.153c0 4.707 3.823 8.53 8.53 8.53s8.53-3.823 8.53-8.53v-34.153z"/>
<glyph unicode="" d="M280.536 147.318c-20.812 0-41.63 7.914-57.473 23.766l12.062 12.061c25.048-25.048 65.787-25.040 90.844 0l107.446 107.45c25.040 25.041 25.040 65.783 0 90.831l-20.009 20.001c-25.041 25.040-65.791 25.040-90.836 0l-75.824-75.821-12.062 12.062 75.825 75.82c31.687 31.688 83.255 31.704 114.959 0l20.009-20c31.688-31.696 31.688-83.267 0-114.955l-107.447-107.448c-15.844-15.845-36.669-23.767-57.494-23.767zM144.010 10.739c-21.708 0-42.125 8.455-57.477 23.807l-20.009 20.001c-31.688 31.704-31.688 83.267 0 114.955l107.449 107.458c31.688 31.687 83.276 31.687 114.96 0l20.009-20.009-12.062-12.062-20.009 20.009c-25.036 25.041-65.795 25.032-90.835 0l-107.45-107.458c-25.032-25.032-25.032-65.783 0-90.832l20.009-20c12.129-12.129 28.264-18.81 45.415-18.81 17.161 0 33.287 6.681 45.416 18.81l71.505 71.505 12.061-12.062-71.505-71.505c-15.343-15.353-35.76-23.807-57.477-23.807z"/>
<glyph unicode="" d="M350.171 398.161c56.336 0 102.019-45.674 102.019-102.019 0-28.938-12.070-55.019-31.43-73.596l-164.76-165.585-167.742 168.568c-17.602 18.334-28.448 43.191-28.448 70.613 0 56.345 45.682 102.019 102.019 102.019 42.425 0 78.794-25.915 94.171-62.776 15.377 36.861 51.746 62.776 94.171 62.776zM350.171 415.221c-37.527 0-71.988-17.427-94.171-46.148-22.183 28.721-56.644 46.148-94.171 46.148-65.658 0-119.079-53.421-119.079-119.079 0-30.854 11.787-60.126 33.204-82.425l180.046-180.938 176.856 177.731c23.366 22.425 36.394 52.93 36.394 85.633 0 65.657-53.421 119.078-119.079 119.078v0z"/>
<glyph unicode="" d="M426.6 300.907c0 94.213-76.37 170.6-170.6 170.6s-170.6-76.387-170.6-170.6c0-55.487 26.573-104.667 67.607-135.797l-0.075-0.042c0.783-0.533 1.591-1.141 2.424-1.791 0.083-0.058 0.158-0.125 0.233-0.183 13.204-10.42 32.171-34.761 32.171-66.891v-119.711h136.48v119.712c0 34.12 19.709 58.603 34.12 68.332l-0.042 0.049c41.426 31.105 68.282 80.528 68.282 136.322zM204.82-6.447v51.471h102.36v-51.471h-102.36zM256 283.856c-9.404 0-17.060 7.647-17.060 17.051 0 9.413 7.656 17.069 17.060 17.069s17.060-7.656 17.060-17.069c0-9.404-7.656-17.051-17.060-17.051zM348.072 178.231c-0.224-0.175-0.449-0.351-0.666-0.533-18.876-13.429-40.226-42.342-40.226-81.494v-34.12h-42.65v205.92c14.686 3.807 25.59 17.034 25.59 32.904 0 18.843-15.277 34.129-34.12 34.129s-34.12-15.286-34.12-34.129c0-15.869 10.904-29.097 25.59-32.904v-205.92h-42.65v34.12c0 36.736-20.825 66.208-38.51 80.161-0.133 0.117-0.299 0.234-0.458 0.367-0.558 0.433-1.107 0.85-1.64 1.25-0.292 0.25-0.583 0.491-0.891 0.716-38.677 29.347-60.86 73.889-60.86 122.211 0 84.659 68.881 153.54 153.54 153.54s153.54-68.881 153.54-153.54c-0.001-48.641-22.401-93.349-61.469-122.678z"/>
<glyph unicode="" d="M256 437.25c-117.787 0-213.25-95.464-213.25-213.25 0-117.787 95.463-213.25 213.25-213.25s213.25 95.463 213.25 213.25c0 117.786-95.463 213.25-213.25 213.25zM256 27.81c-108.174 0-196.19 88.015-196.19 196.19 0 108.174 88.016 196.19 196.19 196.19s196.19-88.016 196.19-196.19c0-108.175-88.016-196.19-196.19-196.19zM145.677 232.53h221.213v-17.060h-221.213v17.060z"/>
<glyph unicode="" d="M110.99 130.166c-28.264 0-51.18-22.907-51.18-51.171s22.916-51.18 51.18-51.18c28.256 0 51.18 22.916 51.18 51.18s-22.924 51.171-51.18 51.171zM110.99 44.874c-18.817 0-34.12 15.303-34.12 34.12 0 18.81 15.303 34.111 34.12 34.111 18.818 0 34.12-15.302 34.12-34.111 0-18.817-15.302-34.12-34.12-34.12zM110.99 420.186c-28.264 0-51.18-22.907-51.18-51.171s22.916-51.18 51.18-51.18c28.256 0 51.18 22.916 51.18 51.18s-22.924 51.171-51.18 51.171zM110.99 334.894c-18.817 0-34.12 15.303-34.12 34.12 0 18.81 15.303 34.111 34.12 34.111 18.818 0 34.12-15.302 34.12-34.111 0-18.817-15.302-34.12-34.12-34.12zM110.99 275.534c-28.264 0-51.18-22.907-51.18-51.171s22.916-51.18 51.18-51.18c28.256 0 51.18 22.916 51.18 51.18s-22.924 51.171-51.18 51.171zM110.99 190.243c-18.817 0-34.12 15.31-34.12 34.12s15.303 34.111 34.12 34.111c18.818 0 34.12-15.302 34.12-34.111s-15.302-34.12-34.12-34.12zM256 130.166c-28.264 0-51.18-22.907-51.18-51.171s22.916-51.18 51.18-51.18c28.256 0 51.18 22.916 51.18 51.18s-22.924 51.171-51.18 51.171zM256 44.874c-18.817 0-34.12 15.303-34.12 34.12 0 18.81 15.303 34.111 34.12 34.111s34.12-15.302 34.12-34.111c0-18.817-15.302-34.12-34.12-34.12zM256 420.186c-28.264 0-51.18-22.907-51.18-51.171s22.916-51.18 51.18-51.18c28.256 0 51.18 22.916 51.18 51.18s-22.924 51.171-51.18 51.171zM256 334.894c-18.817 0-34.12 15.303-34.12 34.12 0 18.81 15.303 34.111 34.12 34.111s34.12-15.302 34.12-34.111c0-18.817-15.302-34.12-34.12-34.12zM256 275.534c-28.264 0-51.18-22.907-51.18-51.171s22.916-51.18 51.18-51.18c28.256 0 51.18 22.916 51.18 51.18s-22.924 51.171-51.18 51.171zM256 190.243c-18.817 0-34.12 15.31-34.12 34.12s15.303 34.111 34.12 34.111c18.818 0 34.12-15.302 34.12-34.111s-15.302-34.12-34.12-34.12zM401.010 130.166c-28.264 0-51.18-22.907-51.18-51.171s22.916-51.18 51.18-51.18c28.256 0 51.18 22.916 51.18 51.18s-22.924 51.171-51.18 51.171zM401.010 44.874c-18.817 0-34.12 15.303-34.12 34.12 0 18.81 15.303 34.111 34.12 34.111s34.12-15.302 34.12-34.111c0-18.817-15.302-34.12-34.12-34.12zM401.010 317.834c28.256 0 51.18 22.916 51.18 51.18s-22.924 51.171-51.18 51.171c-28.264 0-51.18-22.907-51.18-51.171s22.916-51.18 51.18-51.18zM401.010 403.126c18.818 0 34.12-15.302 34.12-34.111 0-18.817-15.302-34.12-34.12-34.12s-34.12 15.303-34.12 34.12c0 18.809 15.303 34.111 34.12 34.111zM401.010 275.534c-28.264 0-51.18-22.907-51.18-51.171s22.916-51.18 51.18-51.18c28.256 0 51.18 22.916 51.18 51.18s-22.924 51.171-51.18 51.171zM401.010 190.243c-18.817 0-34.12 15.31-34.12 34.12s15.303 34.111 34.12 34.111c18.818 0 34.12-15.302 34.12-34.111s-15.302-34.12-34.12-34.12z"/>
<glyph unicode="" d="M319.375 241.377l-12.062 12.061-51.304-51.313-51.314 51.313-12.062-12.061 51.305-51.314-51.472-51.463 12.062-12.062 51.481 51.464 51.47-51.464 12.063 12.062-51.472 51.463zM469.25 368.993h-426.5v-17.060h12.537l4.523-34.12c0-13.611 8.022-25.256 19.542-30.738l30.088-175.498c3.149-17.86 14.586-32.571 32.571-32.571h227.978c17.976 0 28.889 14.445 32.57 32.571l30.089 175.498c11.521 5.481 19.542 17.127 19.542 30.738l4.523 34.12h12.537v17.060zM385.791 114.726c-1.474-7.081-5.464-18.659-15.802-18.659h-227.978c-11.612 0-15.003 14.144-15.76 18.393l-29.014 169.233h317.526l-28.972-168.967zM435.28 320.046l-0.15-1.116v-1.117c0-9.413-7.656-17.060-17.060-17.060h-324.14c-9.404 0-17.060 7.647-17.060 17.060v1.117l-0.15 1.116-4.223 31.888h367.007l-4.224-31.888z"/>
<glyph unicode="" d="M257.066 301.503c14.127 0 25.59 11.463 25.59 25.59 0 14.144-11.463 25.574-25.59 25.574-14.128 0-25.59-11.429-25.59-25.574 0-14.128 11.462-25.59 25.59-25.59zM274.443 267.383v17.060h-51.18v-17.060h17.060v-145.010h-17.060v-17.060h68.24v17.060h-17.060zM256 437.25c-117.77 0-213.25-95.48-213.25-213.25 0-117.787 95.48-213.25 213.25-213.25s213.25 95.463 213.25 213.25c0 117.77-95.48 213.25-213.25 213.25zM256 27.81c-108.183 0-196.19 88.016-196.19 196.19s88.007 196.19 196.19 196.19c108.183 0 196.19-88.016 196.19-196.19s-88.007-196.19-196.19-196.19z"/>
<glyph unicode="" d="M256 437.25l-85.3-85.3v34.12h-68.24v-102.36l-60.077-60.077 12.062-12.062 201.555 201.554 201.555-201.555 12.062 12.062-213.617 213.618zM119.52 369.010h34.12v-34.12l-34.12-34.12v68.24zM102.46 215.47v-204.72h119.42v119.42h68.24v-119.42h119.42v204.72l-153.54 153.54-153.54-153.54zM392.48 27.81h-85.3v119.42h-102.36v-119.42h-85.3v180.595l136.48 136.48 136.48-136.48v-180.595z"/>
<glyph unicode="" d="M256 428.72c-113.056 0-204.72-91.647-204.72-204.72 0-113.063 91.656-204.711 204.72-204.72 113.073 0.009 204.72 91.664 204.72 204.72-0.008 113.064-91.656 204.72-204.72 204.72zM255.984 130.17c-51.73 0-93.814 42.092-93.814 93.83 0 51.739 42.092 93.83 93.83 93.83h0.017c51.729 0 93.813-42.091 93.813-93.83 0-51.729-42.091-93.821-93.846-93.83zM358.327 266.767l64.45 43.092c13.311-25.749 20.883-54.929 20.883-85.859 0-30.537-7.38-59.368-20.375-84.875l-64.567 43.183c5.232 12.879 8.172 26.932 8.172 41.692 0 15.161-3.057 29.605-8.563 42.767zM414.238 324.669l-63.842-42.683c-9.28 15.078-22.033 27.731-37.193 36.885l42.708 63.858c23.458-14.81 43.4-34.669 58.327-58.060zM341.050 391.193l-43.166-64.541c-12.92 5.282-27.039 8.238-41.867 8.238h-0.017c-14.828 0-28.939-2.956-41.867-8.238l-43.174 64.55c25.548 13.053 54.436 20.458 85.041 20.458s59.502-7.413 85.050-20.467zM156.097 382.747l42.717-63.867c-15.194-9.18-27.972-21.867-37.26-36.978l-63.85 42.7c14.936 23.417 34.911 43.308 58.393 58.145zM89.182 309.784l64.458-43.108c-5.481-13.145-8.53-27.548-8.53-42.676 0-14.719 2.933-28.747 8.138-41.591l-64.583-43.192c-12.961 25.482-20.325 54.287-20.325 84.783 0 30.897 7.556 60.052 20.842 85.784zM97.104 124.339l63.867 42.709c9.222-15.352 22.024-28.256 37.302-37.602l-42.699-63.842c-23.575 14.994-43.584 35.086-58.47 58.735zM170.401 57.091l43.117 64.475c13.086-5.432 27.414-8.456 42.467-8.456 0.009 0 0.016 0 0.016 0 15.061 0 29.406 3.032 42.5 8.472l43.117-64.483c-25.69-13.236-54.778-20.759-85.616-20.759-30.831 0-59.912 7.523-85.601 20.751zM356.444 65.612l-42.699 63.85c15.235 9.33 28.013 22.192 37.227 37.502l63.867-42.717c-14.878-23.598-34.862-43.658-58.395-58.635z"/>
<glyph unicode="" d="M256 437.25c-117.779 0-213.25-95.471-213.25-213.25 0-117.771 95.471-213.25 213.25-213.25s213.25 95.479 213.25 213.25c0 117.779-95.471 213.25-213.25 213.25zM256 27.81c-108.183 0-196.19 88.007-196.19 196.19s88.007 196.19 196.19 196.19 196.19-88.007 196.19-196.19c0-108.183-88.007-196.19-196.19-196.19zM255.276 335.798c-43.3 0-67.474-26.756-67.782-69.148h18.809c-0.591 30.754 15.528 53.32 48.073 53.32 23.283 0 42.692-16.419 42.692-40.301 0-15.527-8.364-28.064-19.409-38.518-22.683-21.059-29.047-30.955-30.189-59.801h19.051c1.125 26.156 0.542 25.631 23.375 48.456 15.227 14.328 25.973 28.672 25.973 50.764 0 34.628-27.465 55.228-60.593 55.228zM256 147.221c-9.413 0-17.060-7.639-17.060-17.051 0-9.43 7.647-17.060 17.060-17.060 9.421 0 17.060 7.63 17.060 17.060 0 9.413-7.639 17.051-17.060 17.051z"/>
<glyph unicode="" d="M452.19 249.59v-204.72h-85.3v375.32h-17.060v-375.32h-85.3v255.9h-17.060v-255.9h-85.3v102.36h-17.060v-102.36h-85.225v153.54h-17.060v-153.54h-0.075v-17.060h426.5v221.78z"/>
<glyph unicode="" d="M51.28 428.72v-409.44h409.44v409.44h-409.44zM443.66 411.66v-73.497l-112.364-162.103-77.037 60.877-85.7-119.986-50.596 33.728-49.623-57.845v318.826h375.32zM68.34 36.34v30.296l52.738 61.468 51.763-34.512 84.9 118.854 77.237-61.026 108.682 156.797v-271.877h-375.32z"/>
<glyph unicode="" d="M447.925 462.84c-23.516 0-42.65-19.126-42.65-42.634 0-14.819 7.614-27.88 19.118-35.527l-80.644-212.551c-2.232 0.367-4.481 0.692-6.805 0.692-10.221 0-19.484-3.765-26.84-9.78l-80.693 66.649c3.182 5.972 5.156 12.678 5.156 19.9 0 23.516-19.134 42.65-42.65 42.65s-42.65-19.135-42.65-42.65c0-12.704 5.698-24.008 14.544-31.83l-85.983-149.765c-4.339 1.491-8.904 2.474-13.744 2.474-23.524 0-42.659-19.126-42.659-42.633 0-23.533 19.134-42.675 42.659-42.675 23.516 0 42.641 19.142 42.641 42.675 0 12.537-5.539 23.707-14.185 31.521l86.075 149.925c4.215-1.4 8.63-2.341 13.303-2.341 10.122 0 19.301 3.69 26.623 9.596l80.777-66.716c-3.099-5.915-5.023-12.529-5.023-19.651 0-23.516 19.135-42.65 42.65-42.65 23.516 0 42.65 19.134 42.65 42.65 0 15.136-7.98 28.364-19.892 35.944l80.518 212.201c2.508-0.458 5.065-0.775 7.705-0.775 23.516 0 42.65 19.142 42.65 42.666-0.001 23.509-19.135 42.635-42.651 42.635zM64.084 2.22c-14.111 0-25.599 11.487-25.599 25.615 0 14.103 11.487 25.573 25.599 25.573 14.103 0 25.581-11.47 25.581-25.573 0-14.128-11.479-25.615-25.581-25.615zM191.917 224c-14.111 0-25.59 11.479-25.59 25.59s11.479 25.59 25.59 25.59 25.59-11.479 25.59-25.59-11.479-25.59-25.59-25.59zM336.944 104.58c-14.111 0-25.59 11.479-25.59 25.59s11.479 25.59 25.59 25.59 25.59-11.479 25.59-25.59c0-14.111-11.479-25.59-25.59-25.59zM447.925 394.6c-14.111 0-25.59 11.486-25.59 25.606 0 14.103 11.479 25.574 25.59 25.574s25.59-11.471 25.59-25.574c0-14.12-11.479-25.606-25.59-25.606z"/>
<glyph unicode="" d="M469.254 224c0 114.897-90.915 208.552-204.728 213.033v0.217h-17.060v-0.217c-113.814-4.481-204.72-98.136-204.72-213.033 0-117.787 95.479-213.25 213.25-213.25 41.371 0 79.956 11.82 112.664 32.203l0.117-0.166 6.347 4.315c0.084 0.049 0.15 0.091 0.217 0.142l7.547 5.123-0.116 0.166c52.462 38.843 86.482 101.169 86.482 171.467zM435.484 303.094l-170.958-66.616v183.495c76.391-3.291 141.57-50.455 170.958-116.879zM255.996 27.81c-108.183 0-196.19 88.007-196.19 196.19 0 105.316 83.425 191.483 187.66 195.973v-198.598l111.565-164.243c-29.976-18.568-65.262-29.322-103.035-29.322zM373.142 66.711l-104.076 153.232 172.615 67.257c6.78-19.842 10.512-41.084 10.512-63.2 0.001-64.309-31.103-121.486-79.051-157.289z"/>
<glyph unicode="" d="M256 437.25c-0.058 0-0.117 0-0.183 0-0.025 0-0.049 0-0.083 0-0.084 0-0.167-0.017-0.25-0.017-117.546-0.266-212.734-95.629-212.734-213.233 0-117.571 95.188-212.951 212.734-213.234 0.083 0 0.166-0.016 0.25-0.016 0.033 0 0.058 0 0.083 0 0.067 0 0.125 0 0.183 0 117.754 0 213.25 95.496 213.25 213.25 0 117.77-95.496 213.25-213.25 213.25zM264.53 309.633c22.608 0.617 44.608 3.599 65.791 8.764 6.389-25.14 10.346-54.113 10.97-85.866h-76.761v77.102zM264.53 326.693v92.148c22.999-6.364 46.291-37.019 61.143-84.034-19.701-4.749-40.143-7.515-61.143-8.114zM247.47 419.040v-92.347c-21.175 0.6-41.783 3.415-61.634 8.247 14.969 47.297 38.484 78.069 61.634 84.1zM247.47 309.65v-77.12h-77.295c0.624 31.804 4.598 60.81 10.988 85.966 21.35-5.214 43.516-8.247 66.307-8.846zM153.007 232.53h-92.98c1.883 43.849 18.218 84.033 44.374 115.854 18.993-10.463 39.143-19.026 60.252-25.424-6.89-27.205-11.022-57.876-11.646-90.43zM153.007 215.47c0.624-32.538 4.756-63.209 11.645-90.415-21.1-6.414-41.259-14.977-60.252-25.44-26.156 31.821-42.491 72.005-44.373 115.855h92.98zM170.175 215.47h77.295v-77.020c-22.791-0.601-44.966-3.649-66.316-8.881-6.389 25.141-10.354 54.129-10.979 85.901zM247.47 121.406v-92.447c-23.166 6.048-46.698 36.852-61.659 84.201 19.859 4.831 40.476 7.647 61.659 8.246zM264.53 29.159v92.247c21.009-0.6 41.451-3.382 61.159-8.13-14.844-47.048-38.151-77.752-61.159-84.117zM264.53 138.45v77.020h76.761c-0.624-31.721-4.581-60.66-10.946-85.784-21.199 5.165-43.199 8.164-65.815 8.764zM358.46 215.47h93.514c-1.883-43.85-18.209-84.018-44.366-115.838-19.151 10.529-39.467 19.159-60.759 25.59 6.872 27.172 10.986 57.777 11.611 90.248zM358.46 232.53c-0.624 32.521-4.748 63.142-11.629 90.331 21.276 6.431 41.592 15.044 60.727 25.573 26.181-31.82 42.525-72.021 44.416-115.904h-93.514zM395.804 361.463c-16.969-9.030-34.887-16.494-53.596-22.158-9.972 32.088-23.974 58.278-40.526 75.471 36.319-8.714 68.748-27.507 94.122-53.313zM209.643 414.609c-16.468-17.161-30.404-43.233-40.343-75.154-18.525 5.648-36.286 13.045-53.104 22.008 25.207 25.639 57.395 44.382 93.447 53.146zM116.138 86.603c16.836 8.98 34.604 16.378 53.146 22.025 9.937-31.954 23.874-58.061 40.359-75.237-36.078 8.779-68.281 27.539-93.505 53.212zM301.674 33.241c16.577 17.193 30.58 43.4 40.559 75.537 18.717-5.681 36.644-13.128 53.62-22.191-25.373-25.824-57.827-44.65-94.179-53.346z"/>
<glyph unicode="" d="M299.616 419.624l-22.008-178.564h97.411l-162.635-212.684 22.009 178.563h-97.412l162.635 212.685zM324.24 479.9l-221.78-290.020h112.639l-27.339-221.78 221.78 290.020h-112.639l27.339 221.78z"/>
<glyph unicode="" d="M499.105 236.786h-5.107c-6.322 52.847-51.238 93.83-105.783 93.83-50.68 0-93.014-35.386-103.851-82.776l-24.416 12.754c-2.465 1.282-5.431 1.282-7.896 0l-24.415-12.754c-10.837 47.399-53.171 82.785-103.851 82.785-54.554 0-99.453-40.984-105.784-93.83h-5.106c-7.065 0-12.795-5.731-12.795-12.804 0-7.055 5.73-12.786 12.795-12.786h5.106c6.331-52.846 51.23-93.83 105.784-93.83 58.885 0 106.625 47.731 106.625 106.625 0 1.982-0.192 3.924-0.3 5.881l25.889 13.528 25.889-13.528c-0.108-1.958-0.299-3.899-0.299-5.881 0-58.885 47.739-106.625 106.625-106.625 54.545 0 99.444 40.984 105.783 93.821h5.107c7.064 0 12.795 5.731 12.795 12.795s-5.731 12.795-12.795 12.795zM123.785 134.435c-49.39 0-89.565 40.176-89.565 89.565s40.175 89.565 89.565 89.565c49.389 0 89.565-40.175 89.565-89.565s-40.176-89.565-89.565-89.565zM388.215 134.435c-49.39 0-89.565 40.176-89.565 89.565 0 49.381 40.175 89.556 89.565 89.556s89.565-40.175 89.565-89.556c0-49.389-40.176-89.565-89.565-89.565z"/>
<glyph unicode="" d="M360.7 326.368c14.22 12.512 23.25 30.788 23.25 51.164 0 37.627-30.613 68.24-68.24 68.24-25.673 0-48.064-14.27-59.71-35.278-11.645 21.009-34.037 35.278-59.71 35.278-37.627 0-68.24-30.613-68.24-68.24 0-20.376 9.030-38.652 23.249-51.164h-100.019v-324.14h409.44v324.14h-100.020zM443.66 309.308v-136.48h-179.13v136.48h10.896l41.409-72.472 14.811 8.463-36.578 64.008h148.592zM256 343.295l9.671-16.927h-19.343l9.672 16.927zM315.71 428.712c28.222 0 51.18-22.958 51.18-51.18 0-28.214-22.958-51.164-51.18-51.164s-51.18 22.95-51.18 51.164c0 28.222 22.957 51.18 51.18 51.18zM145.11 377.532c0 28.222 22.957 51.18 51.18 51.18 28.222 0 51.18-22.958 51.18-51.18 0-28.214-22.958-51.164-51.18-51.164-28.223 0-51.18 22.95-51.18 51.164zM216.932 309.308l-36.577-64.008 14.811-8.463 41.409 72.472h10.896v-136.48h-179.131v136.48h148.592zM68.34 155.768h179.13v-136.48h-179.13v136.48zM264.53 19.288v136.48h179.13v-136.48h-179.13z"/>
<glyph unicode="" d="M426.6 356.215h-221.78v8.53c0 18.843-15.277 34.12-34.12 34.12h-85.3c-18.843 0-34.12-15.277-34.12-34.12v-281.49c0-18.842 15.277-34.12 34.12-34.12h341.2c18.843 0 34.12 15.278 34.12 34.12v238.84c0 18.843-15.277 34.12-34.12 34.12zM68.34 364.745c0 9.405 7.656 17.060 17.060 17.060h85.3c9.404 0 17.060-7.655 17.060-17.060v-25.59h238.84c9.404 0 17.060-7.655 17.060-17.060v-17.060h-375.32v59.71zM426.6 66.195h-341.2c-9.404 0-17.060 7.656-17.060 17.060v204.72h375.32v-204.72c0-9.404-7.656-17.060-17.060-17.060z"/>
<glyph unicode="" d="M409.531 406.372l-11.346-3.956c-0.299-0.101-31.030-10.629-79.618-10.629-24.757 0-48.332 5.022-71.122 9.879-23.050 4.914-46.89 9.995-72.131 9.995-50.33 0-67.399-10.804-69.181-12.037l-3.674-2.54v-360.747h17.060v163.133c6.789 2.649 23.433 7.372 55.795 7.372 23.441 0 45.366-4.673 68.574-9.621 23.657-5.048 48.123-10.262 74.679-10.262 51.729 0 83.925 11.112 85.274 11.587l5.698 2.007-0.008 205.819zM392.48 212.948c-11.037-3.007-37.443-8.929-73.912-8.929-24.757 0-48.332 5.022-71.122 9.888-23.050 4.914-46.89 9.995-72.131 9.995-27.63 0-45.241-3.257-55.795-6.406v169.75c6.831 2.649 23.516 7.355 55.795 7.355 23.441 0 45.366-4.673 68.574-9.621 23.657-5.040 48.123-10.254 74.679-10.254 34.361 0 60.102 4.906 73.912 8.338v-170.116z"/>
<glyph unicode="" d="M307.18 27.81h-102.452v166.361l-170.575 226.019h443.693l-170.666-226.019v-166.361zM221.788 44.87h68.332v155.015l153.473 203.245h-375.186l153.381-203.245v-155.015z"/>
<glyph unicode="" d="M405.208 283.777l-144.943 144.943h-153.54v-409.44h298.55v264.471l-0.067 0.026zM260.265 404.595l112.356-112.355h-112.356v112.355zM123.785 36.34v375.32h119.42v-136.48h145.010v-238.84h-264.43z"/>
<glyph unicode="" d="M179.23 411.66v17.060h-127.95v-127.95h17.060v98.829l121.411-121.411 12.062 12.061-121.411 121.411zM332.77 428.72v-17.060h98.828l-121.411-121.411 12.062-12.061 121.411 121.411v-98.829h17.060v127.95zM189.751 169.813l-121.411-121.411v98.828h-17.060v-127.95h127.95v17.060h-98.828l121.411 121.411zM443.66 48.402l-121.411 121.411-12.062-12.062 121.411-121.411h-98.828v-17.060h127.95v127.95h-17.060z"/>
<glyph unicode="" d="M51.28 19.28h170.6v170.617h-170.6v-170.617zM68.34 172.837h136.48v-136.497h-136.48v136.497zM375.42 224h17.060v136.48h-136.48v-17.060h108.191l-126.076-126.075 12.062-12.062 125.243 125.242zM51.28 428.72v-204.72h17.060v187.66h375.32v-375.32h-187.66v-17.060h204.72v409.44z"/>
<glyph unicode="" d="M452.19 386.078c0 23.558-19.1 42.642-42.65 42.642-23.557 0-42.65-19.084-42.65-42.642 0-20.625 14.653-37.835 34.12-41.792v-290.886h17.060v290.886c19.467 3.957 34.12 21.167 34.12 41.792zM409.54 360.488c-14.111 0-25.59 11.479-25.59 25.59 0 14.104 11.479 25.582 25.59 25.582s25.59-11.479 25.59-25.582c0-14.112-11.479-25.59-25.59-25.59zM110.99 103.722v290.878h-17.060v-290.878c-19.467-3.957-34.12-21.159-34.12-41.792 0-23.55 19.101-42.65 42.65-42.65 23.55 0 42.65 19.1 42.65 42.65 0 20.633-14.653 37.835-34.12 41.792zM102.46 36.34c-14.111 0-25.59 11.479-25.59 25.59s11.479 25.59 25.59 25.59 25.59-11.479 25.59-25.59-11.479-25.59-25.59-25.59zM264.53 265.792v128.808h-17.060v-128.808c-19.467-3.957-34.12-21.167-34.12-41.792s14.653-37.836 34.12-41.793v-128.807h17.060v128.807c19.467 3.957 34.12 21.167 34.12 41.793s-14.653 37.835-34.12 41.792zM256 198.41c-14.111 0-25.59 11.479-25.59 25.59s11.479 25.59 25.59 25.59 25.59-11.479 25.59-25.59-11.479-25.59-25.59-25.59z"/>
<glyph unicode="" d="M397.428 226.362c-0.341 1.324-1 2.524-1.883 3.524l-139.545 232.733-19.934-33.237h0.025l-120.403-200.772c-0.299-0.5-0.541-1.016-0.725-1.549-13.761-24.324-21.033-51.813-21.033-79.61 0-89.365 72.705-162.070 162.079-162.070 89.365 0 162.061 72.705 162.061 162.070 0 27.531-7.13 54.753-20.642 78.911zM256.009 2.441c-79.96 0-145.019 65.050-145.019 145.010 0 25.34 6.764 50.413 19.559 72.496 0.242 0.409 0.433 0.833 0.6 1.267l124.851 208.202 124.835-208.177c0.167-0.442 0.374-0.875 0.617-1.291 12.795-22.083 19.558-47.156 19.558-72.496 0-79.961-65.049-145.011-145.001-145.011z"/>
<glyph unicode="" d="M376.086 369.010h-239.506l-93.83-102.36v-187.66h426.5v187.66l-93.164 102.36zM144.086 351.95h224.462l77.637-85.3h-130.475c0-31.946-27.764-57.752-59.71-57.752s-59.71 25.807-59.71 57.752h-130.39l78.186 85.3zM452.19 96.050h-392.38v153.54h121.528c8.163-32.654 39.051-57.752 74.662-57.752s66.499 25.099 74.662 57.752h121.528v-153.54z"/>
<glyph unicode="" d="M181.362 266.966l-12.062-12.062 86.7-86.7 86.7 86.7-12.062 12.062-66.108-66.108v270.036h-17.060v-270.036zM298.65 385.594v-17.060h110.89v-290.020h-307.080v290.020h110.89v17.060h-127.95v-324.14h341.2v324.14z"/>
<glyph unicode="" d="M486.31 415.925h-460.62v-17.060h34.12v-307.080h187.66v-42.65h-136.48v-17.060h290.020v17.060h-136.48v42.65h187.66v307.080h34.12v17.060zM435.13 108.845h-358.26v290.020h358.26v-290.020zM230.41 347.685h-102.36v-102.36h102.36v102.36zM213.35 262.385h-68.24v68.24h68.24v-68.24zM264.53 262.385h119.42v-17.060h-119.42v17.060zM264.53 347.685h119.42v-17.060h-119.42v17.060zM264.53 305.035h119.42v-17.060h-119.42v17.060zM128.050 211.205h255.9v-17.060h-255.9v17.060zM128.050 160.025h255.9v-17.060h-255.9v17.060z"/>
<glyph unicode="" d="M477.78 116.825v307.080h-443.56v-307.080h213.25v-32.996l-80.901-44.807 8.263-14.927 81.168 44.966 81.169-44.966 8.263 14.927-80.902 44.807v32.996h213.25zM51.28 406.845h409.44v-272.96h-409.44v272.96zM244.705 233.171l-50.589 70.556-33.853-65.641-53.229 107.408-38.86-143.435 16.46-4.466 27.097 100.003 48.231-97.312 36.536 70.84 54.621-76.171 47.173 158.272-16.344 4.881zM375.429 321.545c-28.222 0-51.189-22.958-51.189-51.18s22.966-51.18 51.189-51.18c28.214 0 51.171 22.958 51.171 51.18s-22.958 51.18-51.171 51.18zM375.429 236.245c-18.818 0-34.129 15.302-34.129 34.12s15.311 34.12 34.129 34.12c18.81 0 34.111-15.302 34.111-34.12s-15.302-34.12-34.111-34.12z"/>
<glyph unicode="" d="M375.42 428.72h-324.14v-409.44h409.44v324.14l-85.3 85.3zM341.3 411.66v-119.42h-170.6v119.42h170.6zM443.66 36.34h-375.32v375.32h85.3v-136.48h204.72v136.48h9.996l75.304-75.304v-300.016zM290.454 377.54h17.060v-51.18h-17.060v51.18zM170.7 155.76h170.6v-17.060h-170.6v17.060zM170.7 104.58h170.6v-17.060h-170.6v17.060z"/>
<glyph unicode="" d="M51.28 428.72v-409.44h409.44v409.44h-409.44zM443.66 411.66v-76.77h-375.32v76.77h375.32zM68.34 36.34v281.49h375.32v-281.49h-375.32zM179.222 386.070h25.598v-25.59h-25.598v25.59zM307.18 386.070h25.59v-25.59h-25.59v25.59zM197.564 257.136c-3.057-20.759-12.928-21.117-32.795-21.833l-3.082-0.117v-14.469h33.662v-94.622h17.859v133.774h-15.244l-0.4-2.733zM298.267 216.928c-7.93 0-16.077-2.591-22.533-6.931l6.073 31.279h56.237v16.953h-69.548l-13.57-72.447h15.435l0.942 1.474c5.398 8.405 15.235 13.628 25.69 13.628 17.018 0 29.372-12.587 29.372-29.922 0-15.677-9.839-31.554-28.639-31.554-16.069 0-27.622 10.845-28.097 26.381l-0.1 3.099h-17.843l0.075-3.274c0.574-25.274 18.676-42.25 45.049-42.25 26.59 0 47.415 20.35 47.415 46.324-0.001 28.255-18.468 47.24-45.958 47.24z"/>
<glyph unicode="" d="M452.19 437.208c-0.624 0-1.199-0.15-1.816-0.183h-49.364v0.183l-339.384-0.183c-0.617 0.033-1.192 0.183-1.816 0.183-18.843 0-34.12-15.277-34.12-34.12 0-9.479 3.873-18.043 10.112-24.223l75.188-75.188v5.573c0-77.203 60.385-140.145 136.48-144.577v-136.821h-68.24v-17.060h153.54v17.060h-68.24v136.821c76.095 4.431 136.48 67.373 136.48 144.577v-5.573l75.187 75.188c6.24 6.181 10.113 14.744 10.113 24.223 0 18.843-15.277 34.12-34.12 34.12zM110.99 327.801l-63.183 63.184c-3.258 3.232-5.057 7.53-5.057 12.103 0 9.171 7.272 16.677 16.361 17.043 0.525-0.067 1.049-0.116 1.591-0.142l0.467-0.025h49.822v-92.163zM383.95 309.25c0-70.556-57.403-127.95-127.95-127.95s-127.95 57.394-127.95 127.95v110.898h255.9v-110.898zM464.193 390.985l-63.183-63.184v92.164l50.289 0.025c0.542 0.026 1.066 0.075 1.591 0.142 9.089-0.366 16.361-7.871 16.361-17.043-0.001-4.574-1.8-8.872-5.058-12.104z"/>
<glyph unicode="" d="M431.923 287.267h68.123l-247.311 146.426-240.781-146.426h61.709v-255.9h-34.12v-17.060h426.5v17.060h-34.12v255.9zM72.847 304.327l180.004 109.474 184.903-109.474h-364.907zM90.723 31.367v255.9h51.18v-255.9h-51.18zM158.963 31.367v255.9h51.18v-255.9h-51.18zM227.203 31.367v255.9h51.18v-255.9h-51.18zM295.443 31.367v255.9h51.18v-255.9h-51.18zM363.683 31.367v255.9h51.18v-255.9h-51.18z"/>
<glyph unicode="" d="M401.010 87.587v276.933l31.055 30.946-12.045 12.078-30.105-30.004h-278.824v51.18h-17.060v-51.18h-51.281v-17.060h51.281v-289.953h289.919v-51.247h17.060v51.247h68.24v17.060h-68.24zM372.805 360.48l-261.714-260.874v260.874h261.714zM123.203 87.587l260.747 259.922v-259.923h-260.747z"/>
<glyph unicode="" d="M460.72 377.54h-409.44c-14.127 0-25.59-11.463-25.59-25.59v-255.9c0-14.144 11.463-25.59 25.59-25.59h409.44c14.128 0 25.59 11.446 25.59 25.59v255.9c0 14.127-11.462 25.59-25.59 25.59zM42.75 309.3h426.5v-34.12h-426.5v34.12zM469.25 96.050c0-4.707-3.823-8.53-8.53-8.53h-409.44c-4.706 0-8.53 3.823-8.53 8.53v162.070h426.5v-162.070zM42.75 326.36v25.59c0 4.706 3.824 8.53 8.53 8.53h409.44c4.707 0 8.53-3.824 8.53-8.53v-25.59h-426.5zM76.87 138.7h170.6v-17.060h-170.6v17.060zM76.87 189.88h102.36v-17.060h-102.36v17.060zM383.7 121.64h34.637c9.271 0 16.793 7.397 16.793 16.543v1.024c0 9.138-7.522 16.552-16.793 16.552h-34.637c-9.287 0-16.81-7.414-16.81-16.552v-1.024c0-9.146 7.523-16.543 16.81-16.543z"/>
<glyph unicode="" d="M445.523 361.835l-86.147 86.147h-189.523v-68.918h-103.376v-379.047h275.67v68.918h103.376v292.9zM359.376 423.618l61.784-61.783h-61.784v61.783zM83.706 17.247v344.588h155.065v-86.147h86.147v-258.441h-241.212zM256 354.7l61.784-61.783h-61.784v61.783zM342.147 86.165v206.753l-86.147 86.147h-68.918v51.688h155.065v-86.147h86.147v-258.441h-86.147z"/>
<glyph unicode="" d="M281.59 420.19v-41.576l12.795-3.307c14.478-3.74 28.289-9.554 41.051-17.301l11.446-6.947 29.755 29.754 36.186-36.185-30.213-30.205 6.506-11.329c7.214-12.561 12.612-26.165 16.027-40.425l3.14-13.078h43.909v-51.18h-44.891l-3.457-12.52c-3.732-13.503-9.329-26.457-16.643-38.502l-6.948-11.454 32.571-32.562-36.186-36.185-33.029 33.021-11.32-6.506c-11.746-6.756-24.499-11.921-37.894-15.378l-12.804-3.299v-47.215h-51.18v47.215l-12.804 3.299c-13.395 3.457-26.148 8.622-37.894 15.378l-11.329 6.506-33.020-33.029-36.186 36.194 32.571 32.562-6.948 11.454c-7.314 12.045-12.911 24.999-16.643 38.502l-3.457 12.52h-44.891v51.18h43.909l3.14 13.078c3.415 14.26 8.813 27.864 16.027 40.425l6.506 11.329-30.213 30.205 36.186 36.185 29.755-29.754 11.446 6.947c12.762 7.747 26.573 13.562 41.051 17.301l12.795 3.307v41.575h51.178zM256 147.213c42.334 0 76.77 34.445 76.77 76.787 0 42.333-34.436 76.778-76.77 76.778s-76.77-34.445-76.77-76.778c0-42.342 34.436-76.787 76.77-76.787zM298.65 437.25h-85.3v-45.424c-16.294-4.207-31.605-10.721-45.632-19.234l-32.354 32.353-60.31-60.317 33.038-33.038c-7.972-13.877-13.995-28.964-17.827-44.94h-47.515v-85.3h48.964c4.216-15.253 10.479-29.597 18.502-42.817l-35.162-35.161 60.31-60.326 35.852 35.861c13.062-7.506 27.198-13.253 42.134-17.102v-51.055h85.3v51.055c14.936 3.849 29.072 9.596 42.134 17.102l35.853-35.852 60.31 60.317-35.162 35.161c8.022 13.22 14.286 27.565 18.502 42.817h48.964v85.3h-47.515c-3.832 15.977-9.855 31.063-17.827 44.94l33.038 33.038-60.31 60.317-32.354-32.353c-14.028 8.513-29.338 15.027-45.632 19.234v45.424h-0.001zM256 164.273c-32.987 0-59.71 26.74-59.71 59.727 0 32.986 26.723 59.718 59.71 59.718s59.71-26.731 59.71-59.718c0-32.987-26.723-59.727-59.71-59.727v0z"/>
<glyph unicode="" d="M287.871 392.118c6.631 7.513 10.779 17.277 10.779 28.081 0 23.549-19.084 42.641-42.65 42.641-23.557 0-42.65-19.093-42.65-42.641 0-10.804 4.148-20.568 10.779-28.081-97.92-15.311-172.849-100.011-172.849-202.238 0-113.073 91.664-204.72 204.72-204.72s204.72 91.647 204.72 204.72c0 102.218-74.929 186.927-172.849 202.238zM256 445.78c14.111 0 25.59-11.479 25.59-25.581s-11.479-25.582-25.59-25.582-25.59 11.479-25.59 25.581 11.479 25.582 25.59 25.582zM256 2.22c-103.477 0-187.66 84.183-187.66 187.66s84.183 187.66 187.66 187.66 187.66-84.183 187.66-187.66-84.183-187.66-187.66-187.66zM153.682 87.387l138.804 65.741 65.75 138.812-139.263-65.299-65.291-139.254zM227.953 205.599l43.542-43.541-82.21-38.935 38.668 82.476zM283.556 174.119l-43.541 43.541 82.484 38.677-38.943-82.218z"/>
<glyph unicode="" d="M426.625 402.876h-341.25c-18.843 0-34.12-15.277-34.12-34.12v-221.896c0-18.843 15.277-34.12 34.12-34.12h239.49l67.615-67.616v67.616h34.146c18.842 0 34.12 15.277 34.12 34.12v221.896c-0.001 18.843-15.279 34.12-34.121 34.12zM443.685 146.86c0-9.405-7.656-17.060-17.060-17.060h-51.205v-43.492l-43.491 43.492h-246.554c-9.404 0-17.060 7.655-17.060 17.060v221.896c0 9.405 7.656 17.060 17.060 17.060h341.25c9.404 0 17.060-7.655 17.060-17.060v-221.896zM256 274.81c-9.421 0-17.060-7.647-17.060-17.060 0-9.421 7.639-17.060 17.060-17.060s17.060 7.639 17.060 17.060c0 9.413-7.639 17.060-17.060 17.060zM324.24 274.81c-9.421 0-17.060-7.647-17.060-17.060 0-9.421 7.639-17.060 17.060-17.060s17.060 7.639 17.060 17.060c0 9.413-7.639 17.060-17.060 17.060zM189.367 274.81c-9.421 0-17.060-7.647-17.060-17.060 0-9.421 7.639-17.060 17.060-17.060s17.060 7.639 17.060 17.060c0 9.413-7.638 17.060-17.060 17.060z"/>
<glyph unicode="" d="M383.517 164.29h68.673v136.48h-392.38v-127.95c0-89.507 72.563-162.070 162.070-162.070 86.625 0 157.181 68.023 161.637 153.54zM383.95 283.71h51.18v-102.36h-51.18v102.36zM221.88 27.81c-79.96 0-145.010 65.049-145.010 145.010v110.89h290.020v-110.89c0-79.961-65.050-145.010-145.010-145.010zM59.81-6.31h324.14v17.060h-324.14zM145.11 428.72h17.060v-76.77h-17.060v76.77zM281.59 428.72h17.060v-76.77h-17.060v76.77zM213.35 454.31h17.060v-102.36h-17.060v102.36z"/>
<glyph unicode="" d="M286.301 368.885c63.5 0 115.155-51.647 115.155-115.155 0-0.35-0.042-0.717-0.067-1.066-0.049-0.85-0.108-1.699-0.125-2.566l-0.433-17.41 17.435-0.067c42.2-0.117 76.528-34.553 76.528-76.754 0-42.084-34.262-76.52-76.37-76.737l-3.723-0.016h-312.27c-46.99 0.049-85.225 38.301-85.225 85.283 0 36.403 23.174 68.806 57.653 80.636l9.596 3.281 1.691 9.996c4.181 24.674 25.373 42.583 50.388 42.583 7.972 0 15.677-1.849 22.9-5.481l15.553-7.813 7.505 15.693c19.067 39.853 59.817 65.593 103.809 65.593zM286.301 385.945c-52.613 0-97.912-30.804-119.196-75.287-9.205 4.632-19.567 7.297-30.572 7.297-33.769 0-61.742-24.574-67.207-56.794-40.216-13.795-69.18-51.847-69.18-96.763 0-56.494 45.79-102.293 102.268-102.343l316.102 0.016c51.596 0.267 93.338 42.15 93.338 93.797 0 51.73-41.841 93.664-93.538 93.814 0.033 1.366 0.2 2.682 0.2 4.048 0 73.021-59.194 132.215-132.215 132.215v0z"/>
<glyph unicode="" d="M256 428.72c-113.056 0-204.72-91.664-204.72-204.72 0-113.057 91.664-204.72 204.72-204.72s204.72 91.663 204.72 204.72c0 113.056-91.664 204.72-204.72 204.72zM256 36.34c-103.477 0-187.66 84.183-187.66 187.66 0 103.476 84.183 187.66 187.66 187.66s187.66-84.184 187.66-187.66c0-103.477-84.183-187.66-187.66-187.66zM256 206.94h-102.36v-17.060h119.42v169.9h-17.060z"/>
<glyph unicode="" d="M256 437.25c-117.77 0-213.25-95.471-213.25-213.25s95.48-213.25 213.25-213.25c117.771 0 213.25 95.471 213.25 213.25s-95.479 213.25-213.25 213.25zM256 27.81c-108.183 0-196.19 88.015-196.19 196.19 0 108.174 88.007 196.19 196.19 196.19s196.19-88.016 196.19-196.19c0-108.175-88.007-196.19-196.19-196.19zM362.675 300.137l-136.938-132.79-47.973 47.964c-4.999 4.999-13.095 4.999-18.093 0-4.999-4.998-4.999-13.094 0-18.093l56.877-56.877c2.499-2.499 5.773-3.749 9.047-3.749 3.207 0 6.422 1.199 8.904 3.607l145.985 141.561c5.073 4.923 5.198 13.019 0.283 18.093-4.938 5.082-13.027 5.198-18.092 0.284z"/>
<glyph unicode="" d="M341.3 309.296v127.95h-298.55v-230.31h127.95v-127.95h177.015l68.24-68.231h10.645v68.231h42.65v230.31h-127.95zM59.81 223.996v196.19h264.43v-110.89h-153.54v-85.3h-110.89zM452.19 96.046h-42.65v-54.754l-54.762 54.754h-167.018v196.19h264.43v-196.19z"/>
<glyph unicode="" d="M489.946 326.36h-358.519l-28.946 119.42h-80.427v-17.060h67.015l83.176-343.091c-17.735-5.165-30.771-21.351-30.771-40.759 0-23.55 19.092-42.65 42.65-42.65 23.557 0 42.65 19.1 42.65 42.65 0 9.646-3.324 18.45-8.722 25.59h119.794c-5.398-7.14-8.713-15.944-8.713-25.59 0-23.55 19.084-42.65 42.641-42.65 23.566 0 42.659 19.1 42.659 42.65 0 23.565-19.093 42.641-42.65 42.65v0h-182.453l-8.272 34.12h239.489l69.399 204.72zM209.714 44.87c0-14.111-11.48-25.59-25.59-25.59s-25.59 11.479-25.59 25.59c0 14.11 11.479 25.59 25.59 25.59 14.11 0 25.59-11.48 25.59-25.59zM397.374 44.87c0-14.111-11.48-25.59-25.599-25.59-14.103 0-25.581 11.479-25.581 25.59s11.479 25.59 25.581 25.59c14.119 0 25.599-11.48 25.599-25.59zM176.926 138.7l-41.359 170.6h330.587l-57.834-170.6h-231.394z"/>
<glyph unicode="" d="M435.126 334.89h-70.556l-41.017 41.117c-0.049 0.049-0.091 0.083-0.133 0.133l-0.075 0.067c-6.164 6.097-14.627 9.863-23.982 9.863h-85.3c-9.913 0-18.751-4.282-24.99-11.029l-0.033 0.1-40.168-40.251h-72.006c-18.843 0-34.12-15.278-34.12-34.12v-204.72c0-18.843 15.277-34.12 34.12-34.12h358.26c18.851 0 34.129 15.277 34.129 34.12v204.72c-0.001 18.842-15.278 34.12-34.129 34.12zM452.194 96.050c0-9.397-7.664-17.060-17.069-17.060h-358.259c-9.404 0-17.060 7.663-17.060 17.060v204.72c0 9.413 7.656 17.060 17.060 17.060h79.077l25.656 25.706 0.417-1.25 19.584 21.176c3.315 3.582 7.738 5.548 12.461 5.548h85.3c4.506 0 8.771-1.75 12.112-5.048l46.015-46.132h77.637c9.404 0 17.069-7.647 17.069-17.060v-204.72zM255.996 317.83c-61.243 0-110.89-49.631-110.89-110.874s49.647-110.906 110.89-110.906 110.89 49.663 110.89 110.906-49.647 110.874-110.89 110.874zM255.996 113.11c-51.738 0-93.83 42.1-93.83 93.846 0 51.73 42.092 93.814 93.83 93.814s93.83-42.084 93.83-93.814c0-51.746-42.092-93.846-93.83-93.846zM255.996 283.71c-42.409 0-76.77-34.354-76.77-76.754s34.361-76.786 76.77-76.786 76.77 34.386 76.77 76.786-34.362 76.754-76.77 76.754zM255.996 147.23c-32.921 0-59.71 26.806-59.71 59.726s26.789 59.694 59.71 59.694 59.71-26.773 59.71-59.694-26.79-59.726-59.71-59.726z"/>
<glyph unicode="" d="M374.511-6.31c-38.902 0-133.448 49.748-212.85 156.523-74.263 99.869-110.365 172.016-110.365 220.564 0 38.226 26.398 56.469 40.576 66.265l3.499 2.441c15.669 11.203 40.034 14.827 49.372 14.827 16.377 0 23.283-9.588 27.464-17.943 3.548-7.064 32.97-70.247 35.952-78.102 4.574-12.078 3.066-29.68-11.079-39.801l-2.482-1.733c-7.023-4.865-20.084-13.911-21.891-24.907-0.883-5.347 0.908-10.937 5.473-17.093 22.774-30.688 95.488-120.794 108.599-133.031 10.271-9.596 23.283-10.962 32.146-3.49 9.171 7.731 13.245 12.295 13.286 12.345l0.941 0.908c0.775 0.65 7.939 6.331 19.651 6.331 8.446 0 17.043-2.916 25.531-8.655 22.050-14.894 71.797-48.173 71.797-48.173l0.808-0.608c6.364-5.456 15.561-21.166 4.84-41.617-11.112-21.226-45.607-65.051-81.268-65.051zM144.743 437.25c-8.080 0-27.939-3.415-39.46-11.645l-3.707-2.591c-13.228-9.147-33.22-22.958-33.22-52.238 0-44.749 35.003-113.564 106.999-210.385 78.628-105.75 168.509-149.642 199.156-149.642 26.064 0 55.945 36.411 66.157 55.904 6.273 11.97 1.141 18.717-0.633 20.542-5.756 3.856-50.621 33.87-71.247 47.806-5.623 3.806-11.005 5.73-15.985 5.73-4.523 0-7.497-1.607-8.505-2.241-1.666-1.783-6.247-6.473-14.378-13.328-15.218-12.811-38.368-11.271-54.786 4.065-14.77 13.786-89.365 106.658-110.649 135.339-7.364 9.921-10.262 20.026-8.614 30.030 2.991 18.135 19.918 29.855 29.014 36.153l2.266 1.591c8.122 5.806 6.406 16.319 5.057 19.876-2.516 6.623-31.563 69.156-35.244 76.503-3.016 6.016-5.382 8.531-12.221 8.531z"/>
<glyph unicode="" d="M136.58 317.83h238.84v68.24h-238.84v-68.24zM153.64 369.010h204.72v-34.12h-204.72v34.12zM375.42 428.72h-238.84c-18.843 0-34.12-15.277-34.12-34.12v-341.2c0-18.843 15.277-34.12 34.12-34.12h238.84c18.843 0 34.12 15.277 34.12 34.12v341.2c0 18.843-15.277 34.12-34.12 34.12zM392.48 53.4c0-9.413-7.655-17.060-17.060-17.060h-238.84c-9.404 0-17.060 7.647-17.060 17.060v341.2c0 9.397 7.656 17.060 17.060 17.060h238.84c9.405 0 17.060-7.663 17.060-17.060v-341.2zM153.64 241.060v51.18h-17.060v-68.24h68.24v17.060h-17.060zM153.64 155.76v51.18h-17.060v-68.24h68.24v17.060h-17.060zM153.64 70.46v51.18h-17.060v-68.24h68.24v17.060h-17.060zM238.94 241.060v51.18h-17.060v-68.24h68.24v17.060h-17.060zM324.24 241.060v51.18h-17.060v-68.24h68.24v17.060h-17.060zM238.94 155.76v51.18h-17.060v-68.24h68.24v17.060h-17.060zM238.94 70.46v51.18h-17.060v-68.24h68.24v17.060h-17.060zM324.24 70.46v136.48h-17.060v-153.54h68.24v17.060h-17.060z"/>
<glyph unicode="" d="M42.746 437.25v-426.5h426.508v426.5h-426.508zM452.194 420.19v-68.24h-392.388v68.24h392.388zM59.806 27.81v307.080h392.388v-307.080h-392.388zM153.636 394.6h264.438v-17.060h-264.438v17.060zM85.396 394.6h17.060v-17.060h-17.060v17.060zM119.516 394.6h17.060v-17.060h-17.060v17.060z"/>
<glyph unicode="" d="M477.93 383.592l-221.93 81.593-230.31-84.533v-314.278l230.31-83.559 230.31 83.559v314.144l-8.38 3.074zM247.47 4.065l-204.72 74.272v283.947l204.72-74.272v-283.947zM256 303.074l-197.222 71.554 197.222 72.381 197.040-72.447-197.040-71.488zM469.25 78.337l-204.72-74.272v283.948l204.72 73.971v-283.647z"/>
<glyph unicode="" d="M460.72 415.925h-409.44v-110.89h17.069v-272.96h375.311v272.96h17.060v110.89zM426.6 49.135h-341.191v255.9h341.191v-255.9zM443.66 322.095h-375.32v76.77h375.32v-76.77zM194.299 194.071h123.818c17.627 0 31.93 13.886 31.93 31.030v6.181c0 17.143-14.303 31.030-31.93 31.030h-123.818c-17.635 0-31.913-13.887-31.913-31.030v-6.181c0.001-17.144 14.278-31.030 31.913-31.030zM179.447 231.281c0 7.705 6.664 13.97 14.853 13.97h123.818c8.197 0 14.87-6.264 14.87-13.97v-6.181c0-7.706-6.672-13.97-14.87-13.97h-123.819c-8.189 0-14.853 6.264-14.853 13.97v6.181z"/>
<glyph unicode="" d="M435.155 420.248h-153.54c-10.262 0-19.359-4.623-25.606-11.804-6.264 7.181-15.361 11.804-25.623 11.804h-153.541c-18.843 0-34.12-15.277-34.12-34.12v-290.137c0-18.843 15.277-34.12 34.12-34.12h153.54c0.166 0 0.333 0.050 0.5 0.050 9.079-0.217 16.393-7.539 16.61-16.602v-17.568h17.060v9.463h0.167v7.689c0 9.221 7.363 16.718 16.527 17.010 0.116 0 0.25-0.042 0.366-0.042h153.54c18.843 0 34.12 15.277 34.12 34.12v290.137c0 18.843-15.278 34.12-34.12 34.12zM59.785 95.992v290.136c0 9.404 7.663 17.060 17.060 17.060h153.54c9.413 0 17.060-7.656 17.060-17.060v-290.137c0-9.404-7.647-17.060-17.060-17.060h-153.54c-9.396 0.001-17.060 7.656-17.060 17.061zM452.215 95.992c0-9.404-7.647-17.060-17.060-17.060h-153.54c-9.396 0-17.060 7.656-17.060 17.060v290.136c0 9.404 7.664 17.060 17.060 17.060h153.54c9.413 0 17.060-7.656 17.060-17.060v-290.136z"/>
<glyph unicode="" d="M418.070 270.927c-11.795 0-23.040-2.283-33.445-6.264l-41.983 83.026h32.778v17.060h-60.518l17.252-34.12h-147.775l-8.614 17.060h29.055v17.060h-56.777l19.184-37.993c-0.1-0.142-0.233-0.258-0.316-0.408l-36.169-62.959c-11.313 4.84-23.749 7.539-36.811 7.539-51.738 0-93.83-42.092-93.83-93.839 0-51.738 42.092-93.83 93.83-93.83 48.856 0 89.074 37.552 93.398 85.3h69.831c3.040 0 5.847 1.616 7.38 4.249l78.769 135.755 26.015-51.446c-26.981-16.494-45.083-46.149-45.083-80.028 0-51.746 42.092-93.838 93.83-93.838s93.83 42.091 93.83 93.838-42.092 93.838-93.831 93.838zM176.39 308.604l62.101-122.986h-51.163c-2.632 29.047-18.526 54.296-41.584 69.631l30.646 53.355zM170.2 185.619h-64.466l31.496 54.821c17.968-12.329 30.438-32.088 32.97-54.821zM93.93 100.319c-42.334 0-76.77 34.436-76.77 76.77s34.436 76.779 76.77 76.779c9.972 0 19.468-1.966 28.215-5.44l-38.544-67.090c-1.516-2.641-1.508-5.889 0.017-8.521s4.339-4.257 7.38-4.257h79.202c-4.265-38.327-36.826-68.241-76.27-68.241zM255.109 190.559l-62.117 123.010h133.498l-71.381-123.010zM418.070 100.311c-42.334 0-76.77 34.444-76.77 76.778 0 27.231 14.295 51.139 35.737 64.775l36.119-71.439 15.227 7.697-36.011 71.222c8.047 2.875 16.677 4.523 25.698 4.523 42.334 0 76.77-34.445 76.77-76.779s-34.436-76.777-76.77-76.777z"/>
<glyph unicode="" d="M401.177 138.004v137.089c0 71.388-51.664 130.599-119.587 142.644v10.896c0 9.421-7.647 17.060-17.060 17.060h-17.060c-9.429 0-17.060-7.639-17.060-17.060v-10.946c-67.79-12.178-119.253-71.322-119.253-142.594v-137.088l-59.877-48.465v-27.656h409.44v27.656l-59.543 48.464zM443.66 78.944h-375.32v2.457l59.877 48.464v145.228c0 70.556 57.394 127.95 127.95 127.95 70.539 0 127.95-57.394 127.95-127.95v-145.202l59.543-48.464v-2.483zM255.984 2.307c23.573 0 42.699 19.076 42.699 42.65h-85.366c0.017-23.574 19.126-42.65 42.667-42.65z"/>
<glyph unicode="" d="M0.325 309.616v-171.225c0-13.961 11.321-25.281 25.274-25.281h213.566v221.78h-213.567c-13.952 0-25.273-11.312-25.273-25.274zM222.105 130.17h-196.507c-4.531 0-8.214 3.69-8.214 8.221v171.225c0 4.531 3.682 8.214 8.214 8.214h196.506v-187.66zM511.675 224c0 28.114-22.675 50.922-50.731 51.154v34.462c0 13.961-11.312 25.274-25.274 25.274h-179.445v-17.060h179.446c4.532 0 8.214-3.682 8.214-8.214v-171.225c0-4.531-3.682-8.221-8.214-8.221h-179.446v-17.060h179.446c13.962 0 25.274 11.32 25.274 25.281v34.454c28.056 0.233 50.73 23.032 50.73 51.155zM460.945 189.921v68.157c18.601-0.25 33.671-15.411 33.671-34.078-0.001-18.668-15.070-33.829-33.671-34.079z"/>
<glyph unicode="" d="M255.983 437.25c-117.77 0-213.233-95.488-213.233-213.267 0-117.77 95.462-213.233 213.233-213.233s213.267 95.463 213.267 213.233c0 117.779-95.496 213.267-213.267 213.267zM451.973 232.513h-152.99c1.633 58.61 19.975 114.305 53.396 162.27 57.194-32.413 96.595-92.681 99.594-162.27zM255.983 420.19c28.822 0 56.162-6.298 80.835-17.493-34.57-50.397-53.462-108.824-55.062-170.184h-51.513c-1.616 61.36-20.492 119.795-55.079 170.184 24.674 11.204 52.014 17.493 80.819 17.493zM159.621 394.783c33.42-47.948 51.763-103.651 53.395-162.27h-152.989c2.982 69.589 42.4 129.866 99.594 162.27zM60.027 215.453h153.157c-1.633-58.652-19.942-114.405-53.38-162.353-57.295 32.379-96.779 92.697-99.777 162.353zM255.983 27.81c-28.805 0-56.144 6.289-80.818 17.493 34.587 50.38 53.463 108.774 55.079 170.15h51.513c1.6-61.392 20.492-119.77 55.062-170.15-24.675-11.195-52.014-17.493-80.836-17.493zM352.146 53.084c-33.421 47.948-51.713 103.701-53.33 162.369h153.157c-2.999-69.665-42.5-129.99-99.827-162.369z"/>
<glyph unicode="" d="M230.231 352.708v-69.99l16.894-0.166c117.354-1.133 183.462-53.33 200.68-159.105-64.467 74.571-138.805 74.605-200.506 74.622h-17.069v-69.39l-158.145 112.023 158.146 112.006zM247.291 385.712l-204.72-145.010 204.72-145.010v85.317c81.935-0.033 157.897-4.165 222.138-118.721 0 72.755-12.020 235.292-222.138 237.324v86.1z"/>
<glyph unicode="" d="M255.992 424.455l-230.302-400.91h460.62l-230.318 400.91zM255.992 390.202l200.846-349.597h-401.676l200.83 349.597zM247.462 262.385h17.060v-119.42h-17.060v119.42zM255.975 117.375c-7.064 0-12.77-5.73-12.77-12.795 0-7.047 5.707-12.778 12.77-12.778 7.089 0 12.82 5.731 12.82 12.778 0 7.065-5.73 12.795-12.82 12.795z"/>
<glyph unicode="" d="M480.383 87.57l-34.744 70.564-75.329-30.738 6.448-15.794 50.422 20.567c-23.216-67.906-85.958-117.52-160.762-121.061v307.323c33.646 4.206 59.71 32.853 59.71 67.648 0 37.686-30.563 68.231-68.248 68.231-37.677 0-68.232-30.546-68.232-68.231 0-34.795 26.065-63.45 59.71-67.648v-307.322c-74.154 3.515-136.471 52.28-160.162 119.278l46.048-18.784 6.448 15.794-75.329 30.738-34.746-70.565 15.31-7.53 24.415 49.581c25.5-78.761 99.404-135.931 186.544-135.931 85.417 0 158.222 54.879 185.095 131.216l22.091-44.866 15.311 7.53zM206.706 386.079c0 28.214 22.958 51.171 51.172 51.171 28.222 0 51.188-22.958 51.188-51.171 0-28.222-22.965-51.18-51.188-51.18-28.213 0-51.172 22.957-51.172 51.18z"/>
<glyph unicode="" d="M25.69 360.48v-341.2h460.62v341.2h-460.62zM469.25 36.34h-426.5v307.080h426.5v-307.080zM59.81 394.6h392.38v-17.060h-392.38v17.060zM93.93 428.72h324.14v-17.060h-324.14v17.060z"/>
<glyph unicode="" d="M255.875 386.053c-103.66 0-187.66-84.017-187.66-187.66 0-47.032 17.351-89.998 45.949-122.935l-43.9-53.812 13.211-10.779 42.542 52.13c33.712-32.338 79.444-52.246 129.858-52.246 50.53 0 96.362 20.009 130.107 52.496l42.517-52.447 13.261 10.746-43.932 54.195c28.455 32.904 45.707 75.754 45.707 122.652 0 103.643-84.034 187.66-187.66 187.66zM255.875 27.81c-94.072 0-170.6 76.52-170.6 170.583 0 94.080 76.528 170.6 170.6 170.6s170.6-76.52 170.6-170.6c0-94.063-76.528-170.583-170.6-170.583zM178.73 437.25h-50.68c-47.115 0-85.3-38.185-85.3-85.3v-51.33h24.257l111.723 112.356v24.274zM161.67 420.007l-101.86-102.327v34.27c0 37.618 30.613 68.24 68.24 68.24h33.62v-0.183zM383.95 437.25h-50.713v-24.274l111.74-112.356h24.274v51.33c-0.001 47.115-38.203 85.3-85.301 85.3zM452.19 317.68h-0.117l-101.776 102.327v0.183h33.653c37.627 0 68.24-30.622 68.24-68.24v-34.27zM247.47 198.41h-94.047v-17.060h111.107v153.54h-17.060z"/>
<glyph unicode="" d="M460.72 403.13h-409.44v-255.9h138.913l-87.733-102.36h307.080l-87.74 102.36h138.92v255.9zM139.554 61.93l116.438 135.856 116.454-135.856h-232.892zM443.66 164.29h-136.489l-51.18 59.71-51.18-59.71h-136.471v221.78h375.32v-221.78z"/>
<glyph unicode="" d="M171.559 320.504l-12.063-12.063 84.442-84.442-84.042-84.043 12.063-12.063 84.042 84.042 84.043-84.042 12.063 12.063-84.042 84.043 84.442 84.442-12.063 12.063-84.443-84.442z"/>
<glyph unicode="" d="M105.211 374.789c-83.288-83.288-83.288-218.293 0-301.581s218.29-83.285 301.578 0.003c83.288 83.288 83.291 218.29 0.003 301.578s-218.293 83.288-301.581 0zM394.726 85.274c-76.491-76.491-200.961-76.494-277.452-0.003s-76.491 200.964 0 277.455c76.491 76.491 200.963 76.491 277.455 0 76.49-76.491 76.487-200.961-0.003-277.452zM171.559 320.504l-12.063-12.063 84.442-84.442-84.042-84.043 12.063-12.063 84.042 84.042 84.043-84.042 12.063 12.063-84.042 84.043 84.442 84.442-12.063 12.063-84.443-84.442z"/>
<glyph unicode="" d="M268.271 275.051l-12.071 12.071-96.565-96.566 12.069-12.069 84.496 84.495 84.096-84.096 12.069 12.071-48.203 48.203z"/>
<glyph unicode="" d="M255.608 10.736c117.862 0 213.386 95.523 213.386 213.386s-95.523 213.386-213.386 213.386-213.385-95.524-213.385-213.386 95.523-213.386 213.385-213.386zM255.608 420.437c108.243 0 196.315-88.070 196.315-196.315 0-108.243-88.072-196.315-196.315-196.315s-196.315 88.072-196.315 196.315c0 108.245 88.072 196.315 196.315 196.315zM267.795 275.051l-12.071 12.071-96.564-96.566 12.069-12.069 84.495 84.495 84.097-84.096 12.069 12.071-48.203 48.203z"/>
<glyph unicode="" d="M306.538 211.729l12.070 12.071-96.566 96.565-12.069-12.069 84.496-84.496-84.097-84.096 12.071-12.069 48.203 48.203z"/>
<glyph unicode="" d="M42.223 224.122c0-117.862 95.523-213.386 213.386-213.386s213.386 95.523 213.386 213.386-95.524 213.386-213.387 213.386-213.385-95.524-213.385-213.386zM451.923 224.122c0-108.243-88.070-196.315-196.315-196.315-108.243 0-196.315 88.072-196.315 196.315s88.072 196.315 196.315 196.315c108.245 0 196.315-88.072 196.315-196.315zM306.538 211.935l12.070 12.071-96.566 96.565-12.069-12.069 84.496-84.496-84.097-84.096 12.071-12.069 48.203 48.203z"/>
<glyph unicode="" d="M204.679 236.271l-12.071-12.071 96.567-96.565 12.069 12.069-84.496 84.496 84.096 84.096-12.070 12.069-48.203-48.203z"/>
<glyph unicode="" d="M468.994 224.122c0 117.862-95.523 213.386-213.386 213.386s-213.385-95.524-213.385-213.386 95.523-213.386 213.386-213.386 213.385 95.524 213.385 213.386zM59.293 224.122c0 108.243 88.070 196.315 196.315 196.315 108.243 0 196.315-88.072 196.315-196.315s-88.072-196.315-196.315-196.315c-108.244 0-196.315 88.072-196.315 196.315zM204.679 236.309l-12.071-12.071 96.567-96.565 12.069 12.070-84.496 84.495 84.096 84.096-12.070 12.069-48.203-48.203z"/>
<glyph unicode="" d="M243.729 173.193l12.071-12.071 96.565 96.567-12.069 12.069-84.496-84.496-84.096 84.096-12.069-12.071 48.203-48.203z"/>
<glyph unicode="" d="M255.608 437.508c-117.862 0-213.386-95.523-213.386-213.386s95.523-213.386 213.386-213.386 213.386 95.523 213.386 213.386-95.523 213.386-213.386 213.386zM255.608 27.807c-108.243 0-196.315 88.070-196.315 196.315 0 108.243 88.072 196.315 196.315 196.315s196.315-88.072 196.315-196.315c0-108.245-88.072-196.315-196.315-196.315zM243.421 173.193l12.071-12.071 96.565 96.567-12.069 12.069-84.496-84.496-84.096 84.096-12.069-12.071 48.203-48.203z"/>
<glyph unicode="" d="M192.4 221.5l-12.1 12.1 76.4 76.4 76.4-76.4-12.1-12.1-55.8 55.8v-223.3h-17.1v223.3l-55.7-55.8zM419.1 326.9c0 1.4 0.2 2.7 0.2 4 0 73.1-59.2 132.3-132.3 132.3-52.6 0-97.9-30.8-119.2-75.3-9.2 4.6-19.6 7.3-30.6 7.3-33.8 0-61.8-24.6-67.2-56.8-40.2-13.8-69.2-51.9-69.2-96.8 0-56.5 45.8-102.3 102.3-102.3h111v17.1h-111c-47 0-85.2 38.3-85.2 85.3 0 36.4 23.2 68.8 57.7 80.7l9.6 3.3 1.7 10c4.2 24.7 25.4 42.6 50.4 42.6 8 0 15.7-1.9 22.9-5.5l15.6-7.8 7.5 15.7c19 39.7 59.7 65.4 103.7 65.4 63.5 0 115.2-51.7 115.2-115.2 0-0.3 0-0.7-0.1-1.1-0.1-0.8-0.1-1.7-0.1-2.6l-0.4-17.4 17.4-0.1c42.2-0.1 76.6-34.6 76.6-76.8 0-42.1-34.3-76.5-76.4-76.7h-119.8v-17.1h119.9c51.6 0.3 93.4 42.2 93.4 93.8-0.1 51.9-41.9 93.9-93.6 94z"/>
<glyph unicode="" d="M320.8 74.2l12.1-12.1-76.4-76.4-76.4 76.4 12.1 12.1 55.8-55.8v223.3h17v-223.3l55.8 55.8zM418.8 326.9c0 1.4 0.2 2.7 0.2 4 0 73.1-59.2 132.3-132.2 132.3-52.6 0-97.9-30.8-119.2-75.3-9.2 4.6-19.6 7.3-30.6 7.3-33.8 0-61.8-24.6-67.2-56.8-40.2-13.8-69.2-51.9-69.2-96.8 0-56.5 45.8-102.3 102.3-102.3h111v17.1h-111c-47 0-85.2 38.3-85.2 85.3 0 36.4 23.2 68.8 57.7 80.7l9.6 3.3 1.7 10c4.2 24.7 25.4 42.6 50.4 42.6 8 0 15.7-1.9 22.9-5.5l15.6-7.8 7.5 15.7c19.1 39.9 59.8 65.6 103.8 65.6 63.4-0.2 115.1-51.8 115.1-115.3 0-0.3 0-0.7-0.1-1.1-0.1-0.8-0.1-1.7-0.1-2.6l-0.4-17.4 17.4-0.1c42.2-0.1 76.6-34.6 76.6-76.8 0-42.1-34.3-76.5-76.4-76.7h-119.9v-17.1h119.9c51.6 0.3 93.4 42.2 93.4 93.8 0 51.8-41.9 93.8-93.6 93.9z"/>
<glyph unicode="" d="M268.548 307.922c-27.797 0-50.351-22.542-50.351-50.346 0-27.811 22.554-50.362 50.351-50.362 27.818 0 50.354 22.55 50.354 50.362 0 27.803-22.538 50.345-50.354 50.345zM268.548 224c-18.504 0-33.567 15.064-33.567 33.577 0 18.505 15.064 33.56 33.567 33.56 18.522 0 33.57-15.055 33.57-33.56 0-18.514-15.048-33.577-33.57-33.577zM67.136 383.452v-251.765h402.824v251.765h-402.824zM453.178 326.668v-178.198h-369.256v218.197h369.256v-39.998zM379.942 114.902h-329.589v234.98h-16.785v-251.765h402.825v16.786h-16.784zM346.373 81.332h-329.589v234.981h-16.784v-251.766h402.825v16.784h-16.786zM109.098 349.358h50.354v-16.784h-50.353v16.784zM109.098 182.039h50.354v-16.784h-50.353v16.784zM377.649 349.358h50.353v-16.784h-50.353v16.784zM377.649 182.039h50.353v-16.784h-50.353v16.784z" horiz-adv-x="470"/>
<glyph unicode="" d="M118.982-31.232v233.236l-101.787-101.731-11.867 11.875 107.804 107.736-113.13 113.036 11.867 11.875 107.115-107.037v241.476l138.684-138.611-120.8-120.74 116.704-116.618-134.586-134.496zM135.766 197.25v-187.98l94.067 93.994-94.067 93.986zM135.766 438.73v-196.217l98.165 98.109-98.166 98.108z" horiz-adv-x="258"/>
<glyph unicode="" d="M184.708 299.464h117.475l50.353 59.175-50.353 58.315h-117.476v33.63h-16.784v-33.63h-151.142v-117.49h151.142v-16.723h-117.573l-50.352-58.315 50.352-59.171h117.573v-167.844h16.784v167.844h151.043v117.486h-151.042v16.722zM33.569 316.249v83.921h260.928l35.93-41.608-35.995-42.313h-260.864zM318.967 265.957v-83.918h-260.846l-36.011 42.305 35.929 41.613 260.926-0zM50.23 383.452h83.922v-16.784h-83.922v16.784zM218.114 249.087h83.922v-16.785h-83.922v16.785z" horiz-adv-x="353"/>
</font>
</defs>
</svg>
